<?xml version="1.0" standalone="no"?>
<!DOCTYPE svg PUBLIC "-//W3C//DTD SVG 1.1//EN" "http://www.w3.org/Graphics/SVG/1.1/DTD/svg11.dtd" >
<svg>
<metadata>
Created by FontForge 20090914 at Thu Dec 10 12:42:34 2015
 By www-data
</metadata>
<defs>
<font id="Cursivestandard" horiz-adv-x="609" >
  <font-face 
    font-family="Cursive standard"
    font-weight="400"
    font-stretch="normal"
    units-per-em="1000"
    panose-1="0 0 0 0 0 0 0 0 0 0"
    ascent="800"
    descent="-200"
    x-height="319.999"
    cap-height="901.001"
    bbox="-148.998 -605 1054 938.001"
    underline-thickness="50"
    underline-position="-50"
    unicode-range="U+0020-U+20AC"
  />
<missing-glyph horiz-adv-x="400" 
 />
    <glyph glyph-name=".notdef" horiz-adv-x="400" 
 />
    <glyph glyph-name="space" unicode=" " horiz-adv-x="400" 
 />
    <glyph glyph-name="space" unicode="&#xa0;" horiz-adv-x="400" 
 />
    <glyph glyph-name="exclam" unicode="!" horiz-adv-x="269" 
d="M145 165c0 -6 -2.33301 -10.833 -7 -14.5s-9.66699 -5.5 -15 -5.5s-10 2 -14 6s-6 8.66699 -6 14v588c0 5.33301 2 10 6 14s8.66699 6 14 6s10.333 -1.83301 15 -5.5s7 -8.5 7 -14.5v-588zM171 39c0 -12.667 -4.66699 -23.334 -14 -32.001s-20 -13 -32 -13
s-22.5 4.33301 -31.5 13s-13.5 19.334 -13.5 32.001s4.5 23.167 13.5 31.5s19.5 12.5 31.5 12.5s22.667 -4.16699 32 -12.5s14 -18.833 14 -31.5z" />
    <glyph glyph-name="quotedbl" unicode="&#x22;" horiz-adv-x="245" 
d="M159 552c0 -5.33301 -2.16699 -9.83301 -6.5 -13.5s-9.16602 -5.5 -14.499 -5.5s-10 1.83301 -14 5.5s-6 8.16699 -6 13.5v126c0 5.33301 2 9.83301 6 13.5s8.66699 5.5 14 5.5s10.166 -1.83301 14.499 -5.5s6.5 -8.16699 6.5 -13.5v-126zM85 552
c0 -5.33301 -2.16699 -9.83301 -6.5 -13.5s-9.16602 -5.5 -14.499 -5.5s-10 1.83301 -14 5.5s-6 8.16699 -6 13.5v126c0 5.33301 2 9.83301 6 13.5s8.66699 5.5 14 5.5s10.166 -1.83301 14.499 -5.5s6.5 -8.16699 6.5 -13.5v-126z" />
    <glyph glyph-name="numbersign" unicode="#" horiz-adv-x="474" 
d="M449 280c0 -5.33301 -2.16699 -10.166 -6.5 -14.499s-9.16602 -6.5 -14.499 -6.5h-86v-84c0 -5.33301 -2.16699 -10 -6.5 -14s-9.16602 -6 -14.499 -6s-10 2 -14 6s-6 8.66699 -6 14v84h-116v-84c0 -5.33301 -2.16699 -10 -6.5 -14s-9.16602 -6 -14.499 -6s-10 2 -14 6
s-6 8.66699 -6 14v84h-88c-5.33301 0 -10 2.16699 -14 6.5s-6 9.16602 -6 14.499s2 10 6 14s8.66699 6 14 6h88v110h-88c-5.33301 0 -10 2 -14 6s-6 8.66699 -6 14s2 10 6 14s8.66699 6 14 6h88v83c0 5.33301 2 10 6 14s8.66699 6 14 6s10.166 -2 14.499 -6
s6.5 -8.66699 6.5 -14v-83h116v83c0 5.33301 2 10 6 14s8.66699 6 14 6s10.166 -2 14.499 -6s6.5 -8.66699 6.5 -14v-83h86c5.33301 0 10.166 -2 14.499 -6s6.5 -8.66699 6.5 -14s-2.16699 -10 -6.5 -14s-9.16602 -6 -14.499 -6h-86v-110h86c5.33301 0 10.166 -2 14.499 -6
s6.5 -8.66699 6.5 -14zM301 410h-116v-110h116v110z" />
    <glyph glyph-name="dollar" unicode="$" horiz-adv-x="227" 
d="M249 130c0 -21.333 -4.00195 -40.8359 -12.002 -58.5029s-19 -32.667 -33 -45s-30.167 -22 -48.5 -29s-37.833 -10.5 -58.5 -10.5c-28 0 -51.5 8.66699 -70.5 26s-28.5 41 -28.5 71c0 15.333 5.16699 28.5 15.5 39.5s23.166 16.5 38.499 16.5c6 0 11.333 -1.5 16 -4.5
s7 -7.83301 7 -14.5s-1.83301 -11.167 -5.5 -13.5s-7.66699 -4.16602 -12 -5.49902s-8.33301 -3 -12 -5s-5.5 -6.33301 -5.5 -13c0 -18 5.5 -32 16.5 -42s24.5 -15 40.5 -15c30.667 0 56.834 9.16699 78.501 27.5s32.5 43.5 32.5 75.5c0 16 -5.33301 30.333 -16 43
s-23.667 23.834 -39 33.501s-31.333 18.167 -48 25.5s-31 14 -43 20l-18 -46c-6 -15.333 -12.333 -30.666 -19 -45.999c-2.66699 -5.33301 -5.66699 -10.666 -9 -15.999s-8.66602 -8 -15.999 -8c-5.33301 0 -10 1.83301 -14 5.5s-6 8.16699 -6 13.5
c0 1.33301 2.16699 7.5 6.5 18.5l15 37l16 38.5c5 12 8.16699 20 9.5 24c-9.33301 7.33301 -17.333 16 -24 26s-10 21 -10 33c0 15.333 3.66699 29.666 11 42.999s19.666 20 36.999 20c12.667 0 23.834 -4.5 33.501 -13.5s14.5 -19.833 14.5 -32.5
c0 -10 -1.33301 -20 -4 -30s-5.66699 -19.667 -9 -29c16.667 -8.66699 35 -17.667 55 -27s38.833 -20 56.5 -32s32.334 -26.167 44.001 -42.5s17.5 -35.833 17.5 -58.5zM47.998 348.997c0 4 -2.33301 6.00098 -7 6.00098c-3.33301 0 -5.5 -1.66699 -6.5 -5
s-1.5 -6.33301 -1.5 -9c0 -5.33301 0.5 -9.83301 1.5 -13.5s3.16699 -7.83398 6.5 -12.501c2 5.33301 3.66699 10.833 5 16.5s2 11.5 2 17.5z" />
    <glyph glyph-name="percent" unicode="%" horiz-adv-x="557" 
d="M253 676c0 -16 -2.83203 -31.499 -8.49902 -46.499s-13.5 -28.167 -23.5 -39.5s-22 -20.5 -36 -27.5s-29.333 -10.5 -46 -10.5s-32 3.5 -46 10.5s-26 16.167 -36 27.5s-17.833 24.5 -23.5 39.5s-8.5 30.5 -8.5 46.5c0 15.333 3.16699 29.666 9.5 42.999
s14.666 25.333 24.999 36s22.5 19 36.5 25s28.333 9 43 9c15.333 0 30 -3 44 -9s26.167 -14.167 36.5 -24.5s18.5 -22.333 24.5 -36s9 -28.167 9 -43.5zM468.001 766.001l-110 -279.5l-113 -278.5l-56 -140c-2 -4 -4.5 -10.833 -7.5 -20.5s-6.66699 -19.167 -11 -28.5
s-9 -17.666 -14 -24.999s-10.167 -11 -15.5 -11c-6 0 -11 2.16699 -15 6.5s-6 9.16602 -6 14.499l93 237l95 236l46 112.5l45 112.5c2 4 4.5 10.833 7.5 20.5s6.66699 19.167 11 28.5s9 17.666 14 24.999s10.167 11 15.5 11c6 0 11 -2.16699 15 -6.5s6 -9.16602 6 -14.499z
M563.001 110.001c0 -16 -2.83203 -31.499 -8.49902 -46.499s-13.5 -28.167 -23.5 -39.5s-22 -20.5 -36 -27.5s-29.333 -10.5 -46 -10.5s-32 3.5 -46 10.5s-26 16.167 -36 27.5s-17.833 24.5 -23.5 39.5s-8.5 30.5 -8.5 46.5c0 15.333 3.16699 29.833 9.5 43.5
s14.666 25.667 24.999 36s22.5 18.666 36.5 24.999s28.333 9.5 43 9.5c15.333 0 30 -3 44 -9s26.167 -14.167 36.5 -24.5s18.5 -22.5 24.5 -36.5s9 -28.667 9 -44zM212.002 676.002c0 19.333 -7.33398 36.333 -22.001 51s-31.667 22 -51 22s-36.333 -7.33301 -51 -22
s-22 -31.667 -22 -51c0 -10 1.66699 -20 5 -30s8.33301 -19 15 -27s14.5 -14.333 23.5 -19s18.833 -7 29.5 -7c11.333 0 21.333 2.33301 30 7s16.334 11 23.001 19s11.667 17 15 27s5 20 5 30zM522.001 110.002c0 19.333 -7.33398 36.333 -22.001 51s-31.667 22 -51 22
s-36.333 -7.33301 -51 -22s-22 -31.667 -22 -51c0 -10 1.66699 -20 5 -30s8.33301 -19 15 -27s14.5 -14.5 23.5 -19.5s18.833 -7.5 29.5 -7.5c11.333 0 21.333 2.5 30 7.5s16.334 11.5 23.001 19.5s11.667 17 15 27s5 20 5 30z" />
    <glyph glyph-name="ampersand" unicode="&#x26;" horiz-adv-x="555" 
d="M576 366c0 -4.66699 -2.33105 -9.33789 -6.99805 -14.0049c-11.333 -11.333 -25.833 -20.166 -43.5 -26.499s-34.5 -8.83301 -50.5 -7.5c2 -20 3 -39.667 3 -59c0 -32 -3 -61.5 -9 -88.5s-18.333 -53.833 -37 -80.5c11.333 -13.333 23 -26 35 -38s26.667 -20.333 44 -25
c5.33301 -1.33301 10 -3.16602 14 -5.49902s6 -7.16602 6 -14.499c0 -6 -2.16699 -10.833 -6.5 -14.5s-9.16602 -5.5 -14.499 -5.5c-9.33301 0 -19 2.5 -29 7.5s-19.5 11.167 -28.5 18.5s-17.333 15.166 -25 23.499l-20.5 22.5c-22 -23.333 -47.667 -41.166 -77 -53.499
s-60 -18.5 -92 -18.5c-34 0 -65.833 6.5 -95.5 19.5s-55.334 30.833 -77.001 53.5s-38.834 48.834 -51.501 78.501s-19 61.5 -19 95.5c0 28 5 53.333 15 76s23 43.334 39 62.001s34.167 36 54.5 52s40.833 31 61.5 45l-14.5 35.5c-5.66699 13.667 -11 27.834 -16 42.501
s-9.16699 29 -12.5 43s-5 26 -5 36c0 16 2.5 32.167 7.5 48.5s12.333 31 22 44s21.5 23.5 35.5 31.5s30 12 48 12s34.167 -3.83301 48.5 -11.5s26.666 -17.834 36.999 -30.501s18.333 -27 24 -43s8.5 -32.333 8.5 -49c0 -20 -4.16699 -38.5 -12.5 -55.5
s-18.833 -32.5 -31.5 -46.5s-26.834 -27 -42.501 -39s-31.167 -23 -46.5 -33c26.667 -58 55.667 -114.667 87 -170s66 -108.666 104 -159.999c13.333 21.333 21.833 42.333 25.5 63s5.5 43.334 5.5 68.001c0 13.333 -0.333008 26.5 -1 39.5s-2.66699 25.833 -6 38.5
c-7.33301 4 -15.166 8.5 -23.499 13.5s-16.833 7.5 -25.5 7.5c-2.66699 0 -6.33398 -1.33301 -11.001 -4s-9.66699 -5.83398 -15 -9.50098s-10.5 -6.83398 -15.5 -9.50098s-9.5 -4 -13.5 -4c-5.33301 0 -9.83301 2.16699 -13.5 6.5s-5.5 9.16602 -5.5 14.499
c0 4.66699 1 8.16699 3 10.5s4.66699 4.83301 8 7.5l30 18c11.333 6.66699 22.333 10 33 10s20.334 -1.83301 29.001 -5.5s17 -7.66699 25 -12l23 -12c7.33301 -3.66699 15 -5.5 23 -5.5c10.667 0 19.834 1.33301 27.501 4s14.5 5.83398 20.5 9.50098l15.5 9.5
c4.33301 2.66699 7.83301 4 10.5 4c5.33301 0 10.166 -2 14.499 -6s6.5 -8.66699 6.5 -14zM307.002 627.996c0 10.667 -1.83301 21.6709 -5.5 33.0039s-8.66699 21.5 -15 30.5s-14.333 16.333 -24 22s-20.5 8.5 -32.5 8.5s-22.5 -3 -31.5 -9s-16.5 -13.833 -22.5 -23.5
s-10.5 -20.167 -13.5 -31.5s-4.5 -22 -4.5 -32c0 -8.66699 1.5 -19 4.5 -31s6.5 -24.333 10.5 -37s8.33301 -24.834 13 -36.501l12 -30.5l36 26c12.667 9.33301 24.5 19.666 35.5 30.999s20 23.666 27 36.999s10.5 27.666 10.5 42.999zM380.002 91
c-40 52 -76.1689 106.667 -108.502 164s-62.166 116 -89.499 176c-17.333 -12 -34.666 -24.667 -51.999 -38s-33 -28 -47 -44s-25.333 -33.333 -34 -52s-13 -39.667 -13 -63c0 -28 5.16699 -54.5 15.5 -79.5s24.5 -47 42.5 -66s39.333 -34 64 -45s51.334 -16.5 80.001 -16.5
c27.333 0 53.166 5.66699 77.499 17s45.833 27 64.5 47z" />
    <glyph glyph-name="quotesingle" unicode="'" horiz-adv-x="173" 
d="M86 552c0 -5.33301 -2.16699 -9.83301 -6.5 -13.5s-9.16602 -5.5 -14.499 -5.5s-10 1.83301 -14 5.5s-6 8.16699 -6 13.5v125c0 5.33301 2 9.83301 6 13.5s8.66699 5.5 14 5.5s10.166 -1.83301 14.499 -5.5s6.5 -8.16699 6.5 -13.5v-125z" />
    <glyph glyph-name="parenleft" unicode="(" horiz-adv-x="237" 
d="M192 -160c0 -5.33301 -2.16699 -9.99023 -6.5 -13.9902s-9.16602 -6 -14.499 -6c-6.66699 0 -12 2.66699 -16 8c-24 26.667 -45.833 60 -65.5 100s-36.667 82 -51 126s-25.5 88.167 -33.5 132.5s-12 84.166 -12 119.499c0 37.333 4 77.666 12 120.999
s19.167 86.666 33.5 129.999s31.333 84.666 51 123.999s41.5 73.333 65.5 102c4.66699 6 10 9 16 9c5.33301 0 10.166 -2.16699 14.499 -6.5s6.5 -9.16602 6.5 -14.499c0 -2.66699 -2.33301 -8.33398 -7 -17.001s-10.167 -17.834 -16.5 -27.501l-18 -28
c-5.66699 -9 -9.5 -15.5 -11.5 -19.5c-32 -56.667 -57.5 -116.834 -76.5 -180.501s-28.5 -127.834 -28.5 -192.501c0 -65.333 9.5 -129.833 28.5 -193.5s44.5 -123.834 76.5 -180.501c2 -4 5.83301 -10.5 11.5 -19.5l18 -28c6.33301 -9.66699 11.833 -18.834 16.5 -27.501
s7 -14.334 7 -17.001z" />
    <glyph glyph-name="parenright" unicode=")" horiz-adv-x="237" 
d="M245 306c0 -35.333 -4 -75.1699 -12 -119.503s-19.333 -88.5 -34 -132.5s-31.834 -86 -51.501 -126s-41.5 -73.333 -65.5 -100c-4 -5.33301 -9.33301 -8 -16 -8c-5.33301 0 -10.166 2 -14.499 6s-6.5 8.66699 -6.5 14c0 2.66699 1.33301 6.66699 4 12
c22.667 35.333 43.334 70.833 62.001 106.5s34.834 72 48.501 109s24.334 75.333 32.001 115s11.5 80.834 11.5 123.501c0 43.333 -3.83301 84.5 -11.5 123.5s-18.334 77 -32.001 114s-29.834 73.333 -48.501 109s-39.334 71.167 -62.001 106.5
c-2.66699 5.33301 -4 9.33301 -4 12c0 5.33301 2.16699 10.166 6.5 14.499s9.16602 6.5 14.499 6.5c6 0 11.333 -3 16 -9c24 -28.667 45.833 -62.667 65.5 -102s36.834 -80.666 51.501 -123.999s26 -86.666 34 -129.999s12 -83.666 12 -120.999z" />
    <glyph glyph-name="asterisk" unicode="*" horiz-adv-x="474" 
d="M387 510c0 -5.33301 -2.16602 -10.001 -6.49902 -14.001s-9.16602 -6 -14.499 -6c-2.66699 0 -9.16699 2.5 -19.5 7.5l-33.5 17l-34.5 18.5c-11 6 -18.5 10 -22.5 12v-110c0 -5.33301 -2.16699 -10 -6.5 -14s-9.16602 -6 -14.499 -6s-10 2 -14 6s-6 8.66699 -6 14v106
c-4 -2 -11.333 -6 -22 -12l-33.5 -18.5l-32.5 -17c-10 -5 -16.667 -7.5 -20 -7.5c-5.33301 0 -10 2 -14 6s-6 8.66699 -6 14c0 8 3 13.333 9 16l99 55l-99 52c-6.66699 3.33301 -10 9 -10 17c0 5.33301 2.16699 10 6.5 14s9.16602 6 14.499 6c3.33301 0 10 -2.5 20 -7.5
l32.5 -17l33.5 -18.5c10.667 -6 18 -10 22 -12v106c0 5.33301 2 10 6 14s8.66699 6 14 6s10.166 -2 14.499 -6s6.5 -8.66699 6.5 -14v-106c4 2 11.333 6 22 12l33.5 18.5c11.667 6.33301 22.667 12 33 17s16.833 7.5 19.5 7.5c5.33301 0 10.166 -1.83301 14.499 -5.5
s6.5 -8.16699 6.5 -13.5c0 -7.33301 -3.66699 -13 -11 -17l-96 -53l98 -51c7.33301 -3.33301 11 -8.66602 11 -15.999z" />
    <glyph glyph-name="plus" unicode="+" horiz-adv-x="869" 
d="M653 349c0 -5.33301 -2.16699 -10 -6.5 -14s-9.16602 -6 -14.499 -6h-177v-169c0 -5.33301 -2.16699 -10 -6.5 -14s-9.16602 -6 -14.499 -6s-10 2 -14 6s-6 8.66699 -6 14v169h-177c-5.33301 0 -9.83301 2 -13.5 6s-5.5 8.66699 -5.5 14s1.83301 10 5.5 14
s8.16699 6 13.5 6h177v171c0 5.33301 2 10 6 14s8.66699 6 14 6s10.166 -2 14.499 -6s6.5 -8.66699 6.5 -14v-171h177c5.33301 0 10.166 -2 14.499 -6s6.5 -8.66699 6.5 -14z" />
    <glyph glyph-name="comma" unicode="," horiz-adv-x="129" 
d="M83 57c0 -22.667 -3.16504 -46.332 -9.49805 -70.999s-16 -47.334 -29 -68.001s-29.333 -37.667 -49 -51s-42.5 -20 -68.5 -20c-5.33301 0 -10 1.83301 -14 5.5s-6 8.16699 -6 13.5s2 9.83301 6 13.5s8.66699 5.5 14 5.5c13.333 0 25.5 3.16699 36.5 9.5s21 14.333 30 24
s16.667 20.5 23 32.5s11.166 23.667 14.499 35c7.33301 24 11 47.667 11 71c0 5.33301 2 9.83301 6 13.5s8.66699 5.5 14 5.5s10.166 -1.83301 14.499 -5.5s6.5 -8.16699 6.5 -13.5z" />
    <glyph glyph-name="hyphen" unicode="-" horiz-adv-x="474" 
d="M391 172c0 -5.33301 -2.5 -8.83301 -7.5 -10.5s-9.5 -2.5 -13.5 -2.5h-267c-4 0 -8.33301 0.833008 -13 2.5s-7 5.16699 -7 10.5s2.33301 8.83301 7 10.5s9 2.5 13 2.5h267c4 0 8.5 -0.833008 13.5 -2.5s7.5 -5.16699 7.5 -10.5z" />
    <glyph glyph-name="period" unicode="." horiz-adv-x="138" 
d="M115 32c0 -11.333 -4.83301 -20.5 -14.5 -27.5s-19.834 -10.5 -30.501 -10.5s-21 3.33301 -31 10s-15 16 -15 28s5 21.333 15 28s20.333 10 31 10s20.834 -3.5 30.501 -10.5s14.5 -16.167 14.5 -27.5z" />
    <glyph glyph-name="slash" unicode="/" horiz-adv-x="474" 
d="M347 753c0 -0.666992 -0.168945 -1.33398 -0.501953 -2.00098s-0.5 -1.33398 -0.5 -2.00098l-179 -747c-2 -10 -8.33301 -15 -19 -15c-5.33301 0 -10.166 2 -14.499 6s-6.5 8.66699 -6.5 14v4l179 748c1.33301 4.66699 3.83301 8.33398 7.5 11.001s7.83398 4 12.501 4
c6 0 11 -2.16699 15 -6.5s6 -9.16602 6 -14.499z" />
    <glyph glyph-name="zero" unicode="0" 
d="M599 382c0 -51.333 -7.66699 -102.667 -23 -154c-9.33301 -30.667 -22.166 -60.667 -38.499 -90s-36 -55.5 -59 -78.5s-49.167 -41.5 -78.5 -55.5s-61.333 -21 -96 -21c-49.333 0 -92.333 12.833 -129 38.5s-67.334 58.167 -92.001 97.5s-43 82.5 -55 129.5
s-18 91.5 -18 133.5c0 55.333 8.66699 110 26 164c10 30 23.167 59 39.5 87s36 52.833 59 74.5s48.667 39 77 52s59.5 19.5 93.5 19.5s65.167 -6.5 93.5 -19.5s53.833 -30.333 76.5 -52s42.167 -46.5 58.5 -74.5s29.5 -57 39.5 -87c17.333 -54 26 -108.667 26 -164z
M558 381.999c0 52.667 -8.00098 103.334 -24.001 152.001c-8 25.333 -19 50.166 -33 74.499s-30.667 46.166 -50 65.499s-41.166 35 -65.499 47s-51.166 18 -80.499 18c-28.667 0 -55.334 -6 -80.001 -18s-46.667 -27.667 -66 -47s-36 -41.166 -50 -65.499
s-25.333 -49.166 -34 -74.499c-16 -48.667 -24 -99.334 -24 -152.001c0 -36 5.16699 -75 15.5 -117s25.833 -80.833 46.5 -116.5s47 -65.5 79 -89.5s69.333 -36 112 -36c30 0 57.5 6.5 82.5 19.5s47.333 29.667 67 50s36.5 43.5 50.5 69.5s25 52 33 78
c14 46 21 93.333 21 142z" />
    <glyph glyph-name="one" unicode="1" 
d="M426 7c0 -6 -2.16699 -10.8311 -6.5 -14.498s-9.16602 -5.5 -14.499 -5.5s-10 1.83301 -14 5.5s-6 8.5 -6 14.5l-2 675c-4 -4.66699 -10.5 -12.834 -19.5 -24.501l-31 -39.5l-37 -45c-13 -15.333 -25.5 -29.333 -37.5 -42s-22.833 -23.167 -32.5 -31.5
s-16.834 -12.5 -21.501 -12.5c-5.33301 0 -10 2.16699 -14 6.5s-6 9.16602 -6 14.499s2 10 6 14c6 6.66699 12.167 13.167 18.5 19.5s12.5 12.833 18.5 19.5c26.667 28 52 56.333 76 85c14.667 18 28.5 36.5 41.5 55.5s27.167 37.167 42.5 54.5
c5.33301 6.66699 11.333 10 18 10c6 0 10.667 -2.33301 14 -7s5 -9.66699 5 -15z" />
    <glyph glyph-name="two" unicode="2" 
d="M561 7c0 -6 -2.16602 -10.835 -6.49902 -14.502s-9.16602 -5.5 -14.499 -5.5h-453c-5.33301 0 -10.166 2 -14.499 6s-6.5 8.66699 -6.5 14c0 41.333 10.5 79.833 31.5 115.5s47.5 69.5 79.5 101.5s66.333 62.833 103 92.5s71 59.167 103 88.5s58.5 59.166 79.5 89.499
s31.5 62.5 31.5 96.5c0 24 -5.5 45.333 -16.5 64s-25.167 34.667 -42.5 48s-37 23.5 -59 30.5s-43.667 10.5 -65 10.5c-32 0 -61.5 -6.5 -88.5 -19.5s-50.5 -30.5 -70.5 -52.5s-35.5 -47.167 -46.5 -75.5s-16.5 -58.166 -16.5 -89.499c0 -6 -2.16699 -10.833 -6.5 -14.5
s-9.16602 -5.5 -14.499 -5.5s-10 1.83301 -14 5.5s-6 8.5 -6 14.5c0 36.667 6.66699 71.667 20 105s31.833 62.833 55.5 88.5s51.5 46 83.5 61s66.667 22.5 104 22.5c27.333 0 54.333 -4.5 81 -13.5s50.667 -21.833 72 -38.5s38.5 -37 51.5 -61s19.5 -50.667 19.5 -80
c0 -37.333 -10 -72.166 -30 -104.499s-45 -63.333 -75 -93s-62.833 -58.667 -98.5 -87s-69.334 -57.166 -101.001 -86.499s-58.834 -59.833 -81.501 -91.5s-36.334 -65.5 -41.001 -101.5h432c5.33301 0 10.166 -1.83301 14.499 -5.5s6.5 -8.5 6.5 -14.5z" />
    <glyph glyph-name="three" unicode="3" 
d="M571 248c0 -36 -7.66699 -70.1641 -23 -102.497s-35.666 -60.5 -60.999 -84.5s-54.5 -43 -87.5 -57s-67.5 -21 -103.5 -21c-32 0 -63.5 5.33301 -94.5 16s-58.5 25.834 -82.5 45.501s-43.333 43.334 -58 71.001s-22 58.834 -22 93.501c0 6 2 10.833 6 14.5
s8.66699 5.5 14 5.5s10.166 -1.83301 14.499 -5.5s6.5 -8.5 6.5 -14.5c0 -28.667 6.33301 -54.5 19 -77.5s29.167 -42.5 49.5 -58.5s43.333 -28.167 69 -36.5s51.834 -12.5 78.501 -12.5c30 0 59 5.83301 87 17.5s53 27.667 75 48s39.5 44.166 52.5 71.499
s19.5 56.333 19.5 87c0 28 -5.83301 54.167 -17.5 78.5s-28.5 45.166 -50.5 62.499c-16.667 -12 -34.834 -21 -54.501 -27s-39.834 -9 -60.501 -9c-8 0 -17 1.33301 -27 4s-19.667 6.66699 -29 12s-17.166 11.666 -23.499 18.999s-9.5 15.666 -9.5 24.999
c0 10.667 2.83301 19.5 8.5 26.5s12.667 12.667 21 17s17.333 7.5 27 9.5s18.834 3 27.501 3c20 0 40 -2.33301 60 -7s39 -12 57 -22c17.333 17.333 30.5 37.5 39.5 60.5s13.5 46.833 13.5 71.5c0 25.333 -6.5 48.166 -19.5 68.499s-29.5 37.833 -49.5 52.5
s-42.167 26 -66.5 34s-47.833 12 -70.5 12c-19.333 0 -38.833 -2.5 -58.5 -7.5s-38.167 -12.333 -55.5 -22s-33.333 -21.334 -48 -35.001s-27 -29.167 -37 -46.5c-3.33301 -6 -7 -13 -11 -21s-10.333 -12 -19 -12c-5.33301 0 -10 2 -14 6s-6 8.66699 -6 14
c0 4 0.333008 7 1 9c11.333 24 25.666 45.5 42.999 64.5s36.833 35.167 58.5 48.5s45 23.666 70 30.999s50.5 11 76.5 11c28 0 56.667 -5 86 -15s56 -24 80 -42s43.5 -39.667 58.5 -65s22.5 -53.666 22.5 -84.999c0 -28.667 -5.16699 -56.334 -15.5 -83.001
s-25.166 -50.667 -44.499 -72c25.333 -21.333 44.666 -46.666 57.999 -75.999s20 -60.333 20 -93zM422 413.003c-12.667 5.33301 -25.8301 9.33301 -39.4971 12s-27.167 4 -40.5 4c-2.66699 0 -6.33398 -0.166992 -11.001 -0.5s-9.33398 -1 -14.001 -2
s-8.83398 -2.5 -12.501 -4.5s-5.5 -5 -5.5 -9c0 -2.66699 2 -5.16699 6 -7.5s8.83301 -4.33301 14.5 -6s11.167 -3 16.5 -4s9 -1.5 11 -1.5c26 0 51 6.33301 75 19z" />
    <glyph glyph-name="four" unicode="4" 
d="M567 260c0 -6.66699 -2.50195 -11.667 -7.50195 -15s-11 -5.5 -18 -6.5s-14 -1.33301 -21 -1s-12.833 0.5 -17.5 0.5c-20.667 0 -41 0.166992 -61 0.5s-40.333 0.833008 -61 1.5v-233c0 -6 -2.16699 -10.833 -6.5 -14.5s-9.16602 -5.5 -14.499 -5.5s-10 1.83301 -14 5.5
s-6 8.5 -6 14.5v233c-26.667 1.33301 -53.334 2.33301 -80.001 3s-53.334 1 -80.001 1c-19.333 0 -38.666 -0.666992 -57.999 -2s-38.666 -2 -57.999 -2c-6 0 -11.167 1.5 -15.5 4.5s-6.5 7.83301 -6.5 14.5c0 4 1 8 3 12l289 492c4.66699 6.66699 10.334 10 17.001 10
c5.33301 0 10.333 -1.83301 15 -5.5s7 -8.5 7 -14.5c0 -3.33301 -1.33301 -7 -4 -11l-270 -459c12.667 0.666992 25 1 37 1h37c56.667 0 112.334 -1 167.001 -3v107c0 6 2 10.833 6 14.5s8.66699 5.5 14 5.5s10.166 -1.83301 14.499 -5.5s6.5 -8.5 6.5 -14.5v-108
c15.333 -0.666992 30.333 -1.16699 45 -1.5s29.667 -0.5 45 -0.5c12.667 0 25 0.333008 37 1s24.333 1 37 1c6 0 11.167 -1.66699 15.5 -5s6.5 -8.33301 6.5 -15z" />
    <glyph glyph-name="five" unicode="5" 
d="M585 261c0 -37.333 -7.33203 -72.501 -21.999 -105.501s-34.5 -62 -59.5 -87s-54.167 -44.833 -87.5 -59.5s-68.666 -22 -105.999 -22c-35.333 0 -68.5 6.66699 -99.5 20s-58.167 31.333 -81.5 54s-41.833 49.167 -55.5 79.5s-20.5 62.5 -20.5 96.5c0 6 2 10.833 6 14.5
s8.66699 5.5 14 5.5s10.333 -1.83301 15 -5.5s7 -8.5 7 -14.5c0 -29.333 5.66699 -56.5 17 -81.5s26.833 -47 46.5 -66s42.5 -33.833 68.5 -44.5s53.667 -16 83 -16c32 0 62.167 6 90.5 18s53 28.5 74 49.5s37.667 45.667 50 74s18.5 58.5 18.5 90.5
c0 30.667 -7 58.334 -21 83.001s-32.167 45.834 -54.5 63.501s-47.5 31.167 -75.5 40.5s-56.333 14 -85 14c-22 0 -41.167 -0.666992 -57.5 -2s-31.5 -4.16602 -45.5 -8.49902s-27.833 -10.833 -41.5 -19.5s-28.834 -20.334 -45.501 -35.001l-8.5 -5
c-2.33301 -1.33301 -4.83301 -2 -7.5 -2c-6.66699 0 -11.834 2.33301 -15.501 7s-5.16699 9.66699 -4.5 15l1 4c2 30 4.66699 58.833 8 86.5s5 56.5 5 86.5c0 26 -2.83301 52.167 -8.5 78.5s-8.5 52.5 -8.5 78.5c0 9.33301 1.33301 19 4 29s9.33398 15 20.001 15
c22 0 44.5 -0.333008 67.5 -1s45.833 -1 68.5 -1c44.667 0 89.167 0.333008 133.5 1s89.5 1 135.5 1c5.33301 0 10 -1.66699 14 -5s6 -8 6 -14s-2 -11 -6 -15s-8.66699 -6 -14 -6c-46.667 0 -93 -0.5 -139 -1.5s-92 -1.5 -138 -1.5h-54h-26
c-8.66699 0 -17.667 0.333008 -27 1c2.66699 -26 5.5 -52 8.5 -78s4.5 -53 4.5 -81c0 -41.333 -2 -83.333 -6 -126c28 17.333 56.5 28.5 85.5 33.5s59.5 7.5 91.5 7.5c34 0 67.667 -5.83301 101 -17.5s63.166 -28.167 89.499 -49.5s47.5 -46.833 63.5 -76.5
s24 -62.834 24 -99.501z" />
    <glyph glyph-name="six" unicode="6" 
d="M557 210c0 -33.333 -7.00098 -63.9961 -21.001 -91.9961s-32.667 -52 -56 -72s-49.833 -35.667 -79.5 -47s-60.5 -17 -92.5 -17c-29.333 0 -57.333 4.5 -84 13.5s-50.667 22 -72 39s-39.5 37.333 -54.5 61s-25.5 50.167 -31.5 79.5c-4.66699 20.667 -8 41.667 -10 63
s-3 42.666 -3 63.999c0 28 3.5 59.167 10.5 93.5s17 69.166 30 104.499s28.833 69.666 47.5 102.999s40 63.166 64 89.499s50.5 47.333 79.5 63s60.167 23.5 93.5 23.5c6 0 11 -1.83301 15 -5.5s6 -8.5 6 -14.5c0 -6.66699 -2 -11.334 -6 -14.001s-8.66699 -4.66699 -14 -6
l-39 -6.5c-10 -1.66699 -22.667 -6.5 -38 -14.5c-27.333 -14 -52.833 -35.5 -76.5 -64.5s-44.5 -61 -62.5 -96s-32.833 -70.667 -44.5 -107s-19.5 -69.166 -23.5 -98.499c-1.33301 -7.33301 -2.16602 -15 -2.49902 -23s-0.833008 -15.667 -1.5 -23
c1.33301 4 2.66602 8.33301 3.99902 13s3 8.66699 5 12c9.33301 18 21.833 34 37.5 48s32.834 25.833 51.501 35.5s38.167 17 58.5 22s40.5 7.5 60.5 7.5c32.667 0 64 -5.83301 94 -17.5s56.5 -28 79.5 -49s41.333 -45.833 55 -74.5s20.5 -59.667 20.5 -93zM515.999 210.004
c0 28 -5.83398 53.832 -17.501 77.499s-27 44.167 -46 61.5s-41 30.833 -66 40.5s-51.167 14.5 -78.5 14.5c-26 0 -51.333 -4.83301 -76 -14.5s-46.5 -23 -65.5 -40s-34.167 -37.167 -45.5 -60.5s-17 -48.666 -17 -75.999c0 -28 5.5 -53.667 16.5 -77s26 -43.5 45 -60.5
s40.833 -30.167 65.5 -39.5s50.334 -14 77.001 -14c26 0 51.5 4.66699 76.5 14s47.167 22.333 66.5 39s35 36.5 47 59.5s18 48.167 18 75.5z" />
    <glyph glyph-name="seven" unicode="7" 
d="M605 757c0 -4 -1.66406 -8.33691 -4.99707 -13.0039l-222 -332c5.33301 0 10.166 -0.166992 14.499 -0.5s9.16602 -0.5 14.499 -0.5c23.333 0 47 1 71 3l17.5 2c5.66699 0.666992 11.5 1 17.5 1s11.333 -1.66699 16 -5s7 -8.33301 7 -15
c0 -5.33301 -1.66699 -9.66602 -5 -12.999s-7.66602 -5.66602 -12.999 -6.99902c-10.667 -2.66699 -23.167 -4.5 -37.5 -5.5s-29.5 -1.5 -45.5 -1.5c-15.333 0 -30.333 0.333008 -45 1s-27.667 1 -39 1l-253 -376c-4 -6 -9.66699 -9 -17 -9c-5.33301 0 -10 2 -14 6
s-6 8.66699 -6 14c0 4.66699 1 8.33398 3 11.001l239 356c-20.667 1.33301 -41.167 2.33301 -61.5 3s-40.833 1 -61.5 1c-9.33301 0 -18.333 -0.166992 -27 -0.5s-17.667 -0.5 -27 -0.5c-6 0 -11 1.66699 -15 5s-6 8.33301 -6 15c0 10 4.33301 16 13 18s16.667 3 24 3
c32 0 63.333 -0.5 94 -1.5s61.667 -2.16699 93 -3.5l214 319c-32.667 -2 -65.334 -3 -98.001 -3c-54 0 -108.167 1.33301 -162.5 4s-108.5 4 -162.5 4c-15.333 0 -31 -0.333008 -47 -1s-31.667 -1 -47 -1c-6 0 -11 1.83301 -15 5.5s-6 8.5 -6 14.5
c0 6.66699 2.66699 11.667 8 15s11.5 5.5 18.5 6.5s14.167 1.33301 21.5 1s13.333 -0.5 18 -0.5c62.667 0 124.667 -1.33301 186 -4s123.333 -4 186 -4c23.333 0 46.833 1 70.5 3s47.167 3 70.5 3c5.33301 0 10.166 -1.66699 14.499 -5s6.5 -7.66602 6.5 -12.999z" />
    <glyph glyph-name="eight" unicode="8" 
d="M567 207c0 -34 -7.66699 -64.501 -23 -91.501s-35.166 -50 -59.499 -69s-52 -33.667 -83 -44s-62.167 -15.5 -93.5 -15.5c-29.333 0 -59.666 4.5 -90.999 13.5s-60 22.167 -86 39.5s-47.333 38.833 -64 64.5s-25 55.5 -25 89.5c0 24 3.83301 47.333 11.5 70
s18.334 43.5 32.001 62.5s30 35.5 49 49.5s40.167 24.667 63.5 32c-34 16 -61.5 39.5 -82.5 70.5s-31.5 65.5 -31.5 103.5c0 29.333 6.16699 55.833 18.5 79.5s28.5 44.167 48.5 61.5s43 30.666 69 39.999s52.667 14 80 14c28 0 55.167 -4.83301 81.5 -14.5
s49.666 -23.167 69.999 -40.5s36.666 -38.333 48.999 -63s18.5 -51.667 18.5 -81c0 -39.333 -11.5 -73.166 -34.5 -101.499s-51.5 -50.833 -85.5 -67.5c22.667 -8 44.167 -18.167 64.5 -30.5s38.166 -27 53.499 -44s27.5 -36.167 36.5 -57.5s13.5 -44.666 13.5 -69.999z
M478 577.999c0 24 -5.16504 45.6709 -15.498 65.0039s-23.833 36 -40.5 50s-35.667 24.833 -57 32.5s-43 11.5 -65 11.5s-43.333 -3.66699 -64 -11s-39.334 -17.833 -56.001 -31.5s-30 -30 -40 -49s-15 -40.167 -15 -63.5c0 -22.667 4.5 -43.334 13.5 -62.001
s21.167 -34.834 36.5 -48.501s33 -24.334 53 -32.001s40.667 -11.5 62 -11.5c6 0 12 -0.333008 18 -1s12 -1 18 -1c1.33301 0 3.83301 0.5 7.5 1.5s7.5 2.16699 11.5 3.5l11.5 4c3.66699 1.33301 6.16699 2.33301 7.5 3c15.333 6 29.833 13.5 43.5 22.5s25.667 19.333 36 31
s18.666 24.667 24.999 39s9.5 30.166 9.5 47.499zM526.002 207.003c0 22 -4.16504 42 -12.498 60s-19.5 34 -33.5 48s-30 25.833 -48 35.5s-36.667 17.5 -56 23.5c-4.66699 1.33301 -12.834 3.33301 -24.501 6s-19.834 4 -24.501 4c-3.33301 0 -6 -0.333008 -8 -1
s-4.66699 -1.33398 -8 -2.00098c-8 -1.33301 -16.167 -2.16602 -24.5 -2.49902s-16.5 -0.5 -24.5 -0.5c-25.333 0 -48.833 -4.83301 -70.5 -14.5s-40.5 -23 -56.5 -40s-28.667 -36.5 -38 -58.5s-14 -45.667 -14 -71c0 -28 7.33301 -52.333 22 -73s33 -38 55 -52
s46.167 -24.5 72.5 -31.5s51.5 -10.5 75.5 -10.5c25.333 0 51 4 77 12s49.5 19.833 70.5 35.5s38 34.667 51 57s19.5 47.5 19.5 75.5z" />
    <glyph glyph-name="nine" unicode="9" 
d="M558 432c0 -29.333 -3.66504 -60.8359 -10.998 -94.5029s-17.833 -67 -31.5 -100s-30.5 -64.667 -50.5 -95s-42.5 -57 -67.5 -80s-52.333 -41.333 -82 -55s-61.5 -20.5 -95.5 -20.5c-6 0 -11 1.83301 -15 5.5s-6 8.5 -6 14.5c0 11.333 6.33301 18 19 20
c15.333 2.66699 28.833 4.66699 40.5 6s25.167 5.33301 40.5 12c35.333 15.333 66.5 38.5 93.5 69.5s49.833 65.667 68.5 104s33 78.166 43 119.499s15.333 80 16 116c-1.33301 -3.33301 -2.33301 -6.5 -3 -9.5s-1.66699 -5.83301 -3 -8.5c-10 -20 -23 -37.667 -39 -53
s-33.5 -28.166 -52.5 -38.499s-39.167 -18.333 -60.5 -24s-43 -8.5 -65 -8.5c-32.667 0 -63.834 5.83301 -93.501 17.5s-55.834 27.834 -78.501 48.501s-40.667 45.334 -54 74.001s-20 59.667 -20 93s6.83301 64 20.5 92s32 52.333 55 73s49.167 36.834 78.5 48.501
s60 17.5 92 17.5c33.333 0 64.833 -5.5 94.5 -16.5s56.167 -28.167 79.5 -51.5c18 -18 32.5 -38 43.5 -60s19.833 -45 26.5 -69s11.167 -48.5 13.5 -73.5s3.5 -49.5 3.5 -73.5zM505.002 541.997c0 28 -5.83496 53.832 -17.502 77.499s-27.167 44.167 -46.5 61.5
s-41.5 30.833 -66.5 40.5s-50.833 14.5 -77.5 14.5c-26 0 -51.333 -4.83301 -76 -14.5s-46.5 -23 -65.5 -40s-34.333 -37.167 -46 -60.5s-17.5 -48.666 -17.5 -75.999c0 -28 5.66699 -53.667 17 -77s26.5 -43.666 45.5 -60.999s40.833 -30.833 65.5 -40.5
s50.334 -14.5 77.001 -14.5c26 0 51.5 4.66699 76.5 14s47.333 22.5 67 39.5s35.334 37.167 47.001 60.5s17.5 48.666 17.5 75.999z" />
    <glyph glyph-name="colon" unicode=":" horiz-adv-x="296" 
d="M174 236c0 -12 -4.66699 -22.167 -14 -30.5s-20 -12.5 -32 -12.5s-22.5 4.16699 -31.5 12.5s-13.5 18.5 -13.5 30.5s4.5 22.333 13.5 31s19.5 13 31.5 13s22.667 -4.33301 32 -13s14 -19 14 -31zM174 37c0 -12 -4.66699 -22.167 -14 -30.5s-20 -12.5 -32 -12.5
s-22.5 4.16699 -31.5 12.5s-13.5 18.5 -13.5 30.5s4.5 22.167 13.5 30.5s19.5 12.5 31.5 12.5s22.667 -4.16699 32 -12.5s14 -18.5 14 -30.5z" />
    <glyph glyph-name="semicolon" unicode=";" horiz-adv-x="123" 
d="M102 235c0 -12 -4.5 -22.334 -13.5 -31.001s-19.5 -13 -31.5 -13s-22.667 4.16699 -32 12.5s-14 18.833 -14 31.5s4.66699 23.334 14 32.001s20 13 32 13s22.5 -4.5 31.5 -13.5s13.5 -19.5 13.5 -31.5zM83 62.999c0 -22.667 -3.16406 -46.666 -9.49707 -71.999
s-16 -48.666 -29 -69.999s-29.167 -39 -48.5 -53s-42.333 -21 -69 -21c-5.33301 0 -10 2 -14 6s-6 8.66699 -6 14s2 10 6 14s8.66699 6 14 6c13.333 0 25.666 3.16699 36.999 9.5s21.333 14.5 30 24.5s16.167 21.167 22.5 33.5s11.166 24.166 14.499 35.499
c7.33301 25.333 11 49.666 11 72.999c0 5.33301 2 10 6 14s8.66699 6 14 6s10.166 -2 14.499 -6s6.5 -8.66699 6.5 -14z" />
    <glyph glyph-name="less" unicode="&#x3c;" horiz-adv-x="473" 
d="M285 161c0 -5.33301 -2.33301 -9.99805 -7 -13.998s-9.66699 -6 -15 -6c-6 0 -11.333 3 -16 9l-145 189c-1.33301 1.33301 -2.16602 3.16602 -2.49902 5.49902s-0.5 4.5 -0.5 6.5s0.166992 4.16699 0.5 6.5s1.16602 4.16602 2.49902 5.49902l145 189
c4 5.33301 9.33301 8 16 8c5.33301 0 10.333 -2 15 -6s7 -8.66699 7 -14c0 -2 -0.5 -4 -1.5 -6s-2.16699 -3.66699 -3.5 -5l-137 -178l137 -177c3.33301 -4.66699 5 -9 5 -13z" />
    <glyph glyph-name="equal" unicode="=" horiz-adv-x="869" 
d="M653 400c0 -5.33301 -2.16699 -9.66699 -6.5 -13s-9.16602 -5 -14.499 -5h-395c-12.667 0 -19 6 -19 18c0 12.667 6.33301 19 19 19h395c5.33301 0 10.166 -1.83301 14.499 -5.5s6.5 -8.16699 6.5 -13.5zM653 293.999c0 -5.33301 -2.16699 -9.83301 -6.5 -13.5
s-9.16602 -5.5 -14.499 -5.5h-394c-5.33301 0 -10 1.83301 -14 5.5s-6 8.16699 -6 13.5s2 9.66602 6 12.999s8.66699 5 14 5h394c5.33301 0 10.166 -1.66699 14.499 -5s6.5 -7.66602 6.5 -12.999z" />
    <glyph glyph-name="greater" unicode="&#x3e;" horiz-adv-x="473" 
d="M376 354c0 -3.33301 -1.33301 -7 -4 -11l-146 -190c-4 -5.33301 -9.33301 -8 -16 -8c-5.33301 0 -10.166 2 -14.499 6s-6.5 8.66699 -6.5 14s1.33301 9.33301 4 12l137 177l-137 178c-2.66699 2.66699 -4 6.66699 -4 12s2.16699 10 6.5 14s9.16602 6 14.499 6
c6.66699 0 12 -2.66699 16 -8l146 -190c2.66699 -2.66699 4 -6.66699 4 -12z" />
    <glyph glyph-name="question" unicode="?" horiz-adv-x="533" 
d="M470 580c0 -27.333 -4.66504 -50.8311 -13.998 -70.498s-21.333 -36.834 -36 -51.501s-30.834 -27.834 -48.501 -39.501l-51.5 -33.5c-16.667 -10.667 -31.834 -22 -45.501 -34s-23.5 -26 -29.5 -42c-8 -22 -12 -45 -12 -69c0 -12.667 2.16699 -24.834 6.5 -36.501
s6.5 -23.834 6.5 -36.501c0 -6.66699 -2.5 -12.167 -7.5 -16.5s-10.5 -6.5 -16.5 -6.5c-6.66699 0 -11.667 2.33301 -15 7s-5 10 -5 16c0 12.667 -1.66699 24.834 -5 36.501s-5 23.834 -5 36.501c0 30 3.5 54.5 10.5 73.5s16.833 35.667 29.5 50s28 27.5 46 39.5l59 41
c12 8.66699 23.5 17.5 34.5 26.5s20.833 19 29.5 30s15.5 23 20.5 36s7.5 27.5 7.5 43.5c0 26 -6 48.667 -18 68s-27.5 35.166 -46.5 47.499s-40.333 21.666 -64 27.999s-46.834 9.5 -69.501 9.5s-45.667 -3.16699 -69 -9.5s-44.333 -15.666 -63 -27.999
s-34 -28.166 -46 -47.499s-18 -42 -18 -68c0 -5.33301 -2.16699 -10 -6.5 -14s-9.16602 -6 -14.499 -6s-10 2 -14 6s-6 8.66699 -6 14c0 32 7 60 21 84s32.333 44.167 55 60.5s48 28.5 76 36.5s56.333 12 85 12s57.167 -4 85.5 -12s53.833 -20.167 76.5 -36.5
s41.167 -36.5 55.5 -60.5s21.5 -52 21.5 -84zM281.002 39.002c0 -12 -4.5 -22.501 -13.5 -31.501s-19.5 -13.5 -31.5 -13.5s-22.667 4.33301 -32 13s-14 19.334 -14 32.001s4.66699 23.167 14 31.5s20 12.5 32 12.5s22.5 -4.33301 31.5 -13s13.5 -19 13.5 -31z" />
    <glyph glyph-name="at" unicode="@" horiz-adv-x="766" 
d="M718 400c0 -19.333 -2.99512 -39.001 -8.99512 -59.001s-14.833 -38 -26.5 -54s-26 -29.167 -43 -39.5s-36.5 -15.5 -58.5 -15.5c-19.333 0 -36.833 4.83301 -52.5 14.5s-26.167 24.167 -31.5 43.5c-14.667 -18 -32.334 -32.167 -53.001 -42.5s-42.667 -15.5 -66 -15.5
c-22 0 -42.667 4.5 -62 13.5s-36 21 -50 36s-25 32.333 -33 52s-12 40.5 -12 62.5s4 42.833 12 62.5s19 37 33 52s30.667 27 50 36s40 13.5 62 13.5c22.667 0 44.167 -4.66699 64.5 -14s37.833 -22.666 52.5 -39.999c0 4 -0.166992 9 -0.5 15s0 11.667 1 17
s2.83301 9.83301 5.5 13.5s7.33398 5.5 14.001 5.5c5.33301 0 10.166 -2 14.499 -6s6.5 -8.66699 6.5 -14v-223c0 -14 4.16699 -24.5 12.5 -31.5s19.166 -10.5 32.499 -10.5c16 0 29.833 4.16699 41.5 12.5s21.5 18.833 29.5 31.5s14 26.5 18 41.5s6 29.167 6 42.5
c0 40 -7.83301 77.333 -23.5 112s-36.834 65 -63.501 91s-57.834 46.333 -93.501 61s-73.167 22 -112.5 22s-76.666 -7.33301 -111.999 -22s-66.333 -35 -93 -61s-47.834 -56.333 -63.501 -91s-23.5 -72 -23.5 -112s7.83301 -77.5 23.5 -112.5s36.667 -65.333 63 -91
s57.166 -46 92.499 -61s73 -22.5 113 -22.5c5.33301 0 10.166 -2 14.499 -6s6.5 -8.66699 6.5 -14s-2.16699 -10 -6.5 -14s-9.16602 -6 -14.499 -6c-45.333 0 -88.166 8.5 -128.499 25.5s-75.666 40.167 -105.999 69.5s-54.333 63.833 -72 103.5s-26.5 82.5 -26.5 128.5
s8.83301 88.833 26.5 128.5s41.667 74.167 72 103.5s65.666 52.333 105.999 69s83.166 25 128.499 25s88.333 -8.33301 129 -25s76.167 -39.667 106.5 -69s54.5 -63.833 72.5 -103.5s27 -82.5 27 -128.5zM495.005 395.999c0 16 -3 31.5 -9 46.5s-14.167 28.333 -24.5 40
s-22.666 20.834 -36.999 27.501s-29.833 10 -46.5 10s-32.167 -3.33301 -46.5 -10s-26.666 -15.834 -36.999 -27.501s-18.333 -25 -24 -40s-8.5 -30.5 -8.5 -46.5s2.83301 -31.5 8.5 -46.5s13.667 -28.333 24 -40s22.666 -20.834 36.999 -27.501s29.833 -10 46.5 -10
s32.167 3.33301 46.5 10s26.666 15.834 36.999 27.501s18.5 25 24.5 40s9 30.5 9 46.5z" />
    <glyph glyph-name="A" unicode="A" horiz-adv-x="733" 
d="M701 188c0 -28 -4.34668 -54.1631 -13.0137 -78.4961s-20.667 -45.666 -36 -63.999s-33.5 -33 -54.5 -44s-43.5 -16.5 -67.5 -16.5c-36.667 0 -65.5 11.333 -86.5 34s-36.667 50.5 -47 83.5s-16.666 68.667 -18.999 107s-3.5 72.833 -3.5 103.5
c0 22.667 0.5 45.167 1.5 67.5s2.16699 44.5 3.5 66.5c-16.667 4.66699 -33 9.83398 -49 15.501s-32.667 10.5 -50 14.5c0 -30 0.166992 -62.833 0.5 -98.5s-0.666992 -71.834 -3 -108.501s-7.16602 -72 -14.499 -106s-18.5 -64.333 -33.5 -91s-34.833 -48 -59.5 -64
s-56 -24 -94 -24c-10 0 -20.5 1.5 -31.5 4.5s-21.333 7.66699 -31 14s-17.667 14.166 -24 23.499s-9.5 21 -9.5 35c0 18 6 33.5 18 46.5s26 19.5 42 19.5c6 0 11 -2 15 -6s6 -9.66699 6 -17c0 -8 -2 -13.5 -6 -16.5s-8.5 -5.33301 -13.5 -7s-9.66699 -3.66699 -14 -6
s-6.5 -6.83301 -6.5 -13.5c0 -6 2.16699 -11.167 6.5 -15.5s9.33301 -7.66602 15 -9.99902s11.667 -3.83301 18 -4.5s11.5 -1 15.5 -1c38.667 0 69 11 91 33s38.333 49.5 49 82.5s17.167 68.667 19.5 107s3.5 73.833 3.5 106.5v123c-1.33301 0 -3 0.166992 -5 0.5
s-4 0.5 -6 0.5c-8 0 -15.667 -1.5 -23 -4.5s-13.833 -6.33301 -19.5 -10l-15 -10c-4.33301 -3 -7.83301 -4.5 -10.5 -4.5c-5.33301 0 -10 2.33301 -14 7s-6 10 -6 16c0 6.66699 2.33301 12.667 7 18c12.667 13.333 27 22.666 43 27.999s32.333 7.33301 49 6
c0 28.667 0.666992 57 2 85s2 56.333 2 85c0 18.667 1.5 39.5 4.5 62.5s8.5 44.667 16.5 65s18.667 37.5 32 51.5s30.333 21 51 21s36.834 -7.33301 48.501 -22s20.334 -32.667 26.001 -54s9.16699 -43.833 10.5 -67.5s2 -43.834 2 -60.501c0 -36 -1.33301 -71.333 -4 -106
l-8 -105c4.66699 -0.666992 9.33398 -1.16699 14.001 -1.5s9.33398 -0.5 14.001 -0.5c8.66699 0 16.5 2.16699 23.5 6.5s13.167 9 18.5 14l15 14.5c4.66699 4.66699 9.33398 7 14.001 7c5.33301 0 10.166 -2.5 14.499 -7.5s6.5 -10.5 6.5 -16.5
c0 -5.33301 -2.33301 -10.666 -7 -15.999c-11.333 -12.667 -24.333 -23.834 -39 -33.501s-30 -14.5 -46 -14.5c-5.33301 0 -10.5 0.166992 -15.5 0.5s-10.167 0.833008 -15.5 1.5c-1.33301 -22 -2.5 -44.167 -3.5 -66.5s-1.5 -44.833 -1.5 -67.5s0.666992 -49.834 2 -81.501
s5.66602 -61.834 12.999 -90.501s18.833 -52.834 34.5 -72.501s37.834 -29.5 66.501 -29.5c18.667 0 35.834 4.33301 51.501 13s29.334 20.167 41.001 34.5s20.834 31 27.501 50s10 38.833 10 59.5c0 14 -4.33301 27.333 -13 40s-19.667 19 -33 19
c-9.33301 0 -15.666 -2.66699 -18.999 -8s-5.66602 -11 -6.99902 -17s-3.16602 -11.667 -5.49902 -17s-7.5 -8 -15.5 -8c-5.33301 0 -10 2 -14 6s-6 9.66699 -6 17c0 21.333 6.66699 38.833 20 52.5s29 20.5 47 20.5c12.667 0 24.334 -2.83301 35.001 -8.5
s19.834 -13.5 27.501 -23.5s13.667 -21.333 18 -34s6.5 -25.667 6.5 -39zM392.986 701.004c0 9.33301 -0.169922 22.332 -0.50293 38.999s-2 33.5 -5 50.5s-7.66699 31.667 -14 44s-15.166 18.5 -26.499 18.5c-13.333 0 -24.166 -5.83301 -32.499 -17.5
s-14.666 -25.667 -18.999 -42s-7.33301 -33.166 -9 -50.499s-2.5 -31.666 -2.5 -42.999c0 -28.667 -0.666992 -58 -2 -88s-2 -59.333 -2 -88c17.333 -4 34.333 -8.83301 51 -14.5s33.667 -10.834 51 -15.501c2.66699 34.667 5.16699 69.167 7.5 103.5s3.5 68.833 3.5 103.5z
" />
    <glyph glyph-name="B" unicode="B" horiz-adv-x="750" 
d="M702 249c0 -37.333 -5.66895 -71.9971 -17.002 -103.997s-27.166 -59.833 -47.499 -83.5s-44.5 -42.334 -72.5 -56.001s-58.333 -20.5 -91 -20.5c-22 0 -42 4.83301 -60 14.5s-33.5 22.834 -46.5 39.501s-23.167 35.834 -30.5 57.501s-11 44.5 -11 68.5
c0 17.333 2.83301 33.833 8.5 49.5s13.5 29.167 23.5 40.5s21.833 20.5 35.5 27.5s28.167 10.5 43.5 10.5c6 0 11 -2.16699 15 -6.5s6 -9.83301 6 -16.5s-2 -12.167 -6 -16.5s-9 -6.5 -15 -6.5c-20 0 -36.667 -8 -50 -24s-20 -35.333 -20 -58c0 -18 2.5 -35.167 7.5 -51.5
s12.333 -30.5 22 -42.5s21 -21.667 34 -29s27.5 -11 43.5 -11c27.333 0 52.5 5.66699 75.5 17s42.667 26.833 59 46.5s29.166 42.834 38.499 69.501s14 55 14 85c0 23.333 -3.33301 45.166 -10 65.499s-15.834 39.333 -27.501 57s-25.167 33.5 -40.5 47.5
s-31.666 25.667 -48.999 35c-13.333 -15.333 -31.5 -27.5 -54.5 -36.5s-43.833 -13.5 -62.5 -13.5c-6.66699 0 -14.334 1.5 -23.001 4.5s-16.667 7.33301 -24 13s-13.666 12.334 -18.999 20.001s-8 16.167 -8 25.5c0 8.66699 2.66699 16.834 8 24.501
s11.666 14.167 18.999 19.5s15.333 9.66602 24 12.999s16.334 5 23.001 5c17.333 0 35 -1.83301 53 -5.5s35.667 -8.5 53 -14.5c32 43.333 48 92.666 48 147.999c0 15.333 -2 30.166 -6 44.499s-9.66699 27.833 -17 40.5c-12 22.667 -27.167 41.167 -45.5 55.5
s-38.333 25.833 -60 34.5s-43.834 15 -66.501 19s-44.667 6 -66 6c-41.333 0 -80.666 -7.33301 -117.999 -22c-21.333 -7.33301 -42.166 -18.166 -62.499 -32.499s-38.5 -30.833 -54.5 -49.5s-29 -40 -39 -64s-15 -49.667 -15 -77c0 -11.333 2.83301 -22.666 8.5 -33.999
s12.834 -21.333 21.501 -30s18.167 -15.667 28.5 -21s20.5 -8 30.5 -8c12 0 22.667 3.66699 32 11s17 16.333 23 27s10.667 22.667 14 36s5 25.666 5 36.999c0 7.33301 2 13 6 17s8.66699 6 14 6c6 0 11 -2 15 -6s6 -9.66699 6 -17c0 -18 -2.66699 -36.333 -8 -55
s-12.833 -35.5 -22.5 -50.5s-21.667 -27.167 -36 -36.5s-30.5 -14 -48.5 -14c-15.333 0 -30.833 3.66699 -46.5 11s-29.667 17.333 -42 30s-22.333 27.5 -30 44.5s-11.5 34.5 -11.5 52.5c0 48 10.333 90.167 31 126.5s47.167 66.666 79.5 90.999s68 42.666 107 54.999
s76.5 18.5 112.5 18.5c32.667 0 66.667 -4.5 102 -13.5s67.833 -23.333 97.5 -43s54.167 -45 73.5 -76s29 -68.833 29 -113.5c0 -30.667 -4 -60.167 -12 -88.5s-20.333 -54.5 -37 -78.5c40.667 -24.667 74 -57.334 100 -98.001s39 -88.334 39 -143.001zM373.998 817.003
c0 -6.66699 -2.16504 -12.167 -6.49805 -16.5s-9.16602 -6.5 -14.499 -6.5c-6 0 -11.167 -6.33301 -15.5 -19s-7.83301 -28.667 -10.5 -48s-4.83398 -40.833 -6.50098 -64.5s-2.83398 -46.334 -3.50098 -68.001s-1 -41.5 -1 -59.5v-36c0 -29.333 0.333008 -58.5 1 -87.5
s1 -57.833 1 -86.5c0 -40 -2.5 -80.167 -7.5 -120.5s-14.667 -76.666 -29 -108.999s-34.666 -58.833 -60.999 -79.5s-61.166 -31 -104.499 -31c-10 0 -20.5 1.5 -31.5 4.5s-21.333 7.66699 -31 14s-17.667 14.166 -24 23.499s-9.5 21 -9.5 35c0 18 6 34.5 18 49.5
s26 22.5 42 22.5c6 0 11 -2.33301 15 -7s6 -10.334 6 -17.001c0 -8 -2 -13.5 -6 -16.5s-8.5 -5.16699 -13.5 -6.5s-9.66699 -3.5 -14 -6.5s-6.5 -9.16699 -6.5 -18.5c0 -6 2.16699 -11.167 6.5 -15.5s9.33301 -7.66602 15 -9.99902s11.667 -3.83301 18 -4.5s11.5 -1 15.5 -1
c36 0 64.667 9.33301 86 28s37.5 42.334 48.5 71.001s18 60.334 21 95.001s4.5 68 4.5 100c0 34 -0.5 68.167 -1.5 102.5s-1.5 68.833 -1.5 103.5c0 10.667 0.166992 25.667 0.5 45s1.16602 40.5 2.49902 63.5s3.66602 46.333 6.99902 70s8 45.167 14 64.5
s13.5 35.166 22.5 47.499s20.167 18.5 33.5 18.5c5.33301 0 10.166 -2.16699 14.499 -6.5s6.5 -9.83301 6.5 -16.5zM488 474.003c-11.333 1.33301 -22.998 3.16602 -34.998 5.49902s-24 3.5 -36 3.5c-3.33301 0 -9 -1.33301 -17 -4s-12 -6.66699 -12 -12s4 -9.5 12 -12.5
s13.667 -4.5 17 -4.5c13.333 0 25.666 1.83301 36.999 5.5s22.666 9.83398 33.999 18.501z" />
    <glyph glyph-name="C" unicode="C" horiz-adv-x="540" 
d="M508 180c0 -30 -5.83105 -57 -17.498 -81s-26.667 -44.333 -45 -61s-39.333 -29.667 -63 -39s-47.5 -14 -71.5 -14c-40 0 -75.833 10.167 -107.5 30.5s-58.5 46.833 -80.5 79.5s-38.833 69.667 -50.5 111s-17.5 83 -17.5 125c0 28.667 1 57.167 3 85.5
s5.66699 56.5 11 84.5c-30 20 -52.333 47.333 -67 82s-22 71 -22 109c0 32 6.16699 61 18.5 87s28.5 48.333 48.5 67s42.667 33 68 43s51 15 77 15c5.33301 0 10.166 -2.16699 14.499 -6.5s6.5 -9.83301 6.5 -16.5s-2.16699 -12.167 -6.5 -16.5s-9.16602 -6.5 -14.499 -6.5
c-20.667 0 -41.167 -3.83301 -61.5 -11.5s-38.666 -18.667 -54.999 -33s-29.5 -31.833 -39.5 -52.5s-15 -43.667 -15 -69c0 -26.667 4.66699 -52.834 14 -78.501s23.666 -46.834 42.999 -63.501c9.33301 40.667 22.666 81.834 39.999 123.501s38.5 79.667 63.5 114
s54 62.333 87 84s70.167 32.5 111.5 32.5c14.667 0 27.834 -3.5 39.501 -10.5s21.667 -16.167 30 -27.5s14.666 -24.5 18.999 -39.5s6.5 -30.167 6.5 -45.5c0 -47.333 -9.5 -90 -28.5 -128s-43.667 -70.167 -74 -96.5s-64.333 -46.5 -102 -60.5s-75.5 -21 -113.5 -21
c-18.667 0 -35.334 2.66699 -50.001 8c-4 -25.333 -6.83301 -50.833 -8.5 -76.5s-2.5 -50.834 -2.5 -75.501c0 -35.333 4.83301 -70.666 14.5 -105.999s23.667 -67.333 42 -96s40.833 -52.167 67.5 -70.5s57 -27.5 91 -27.5c18.667 0 37.167 3.33301 55.5 10
s35 16.334 50 29.001s27.167 28.334 36.5 47.001s14 39.667 14 63c0 16.667 -4.83301 32 -14.5 46s-22.167 21 -37.5 21c-12 0 -20.167 -2.33301 -24.5 -7s-7.5 -9.83398 -9.5 -15.501s-4.16699 -10.834 -6.5 -15.501s-7.16602 -7 -14.499 -7c-5.33301 0 -10 2.33301 -14 7
s-6 10.667 -6 18c0 10.667 2.33301 20.167 7 28.5s10.667 15.333 18 21s15.333 9.83398 24 12.501s17.334 4 26.001 4c13.333 0 25.666 -3.33301 36.999 -10s21.166 -15 29.499 -25s14.833 -22 19.5 -36s7 -28 7 -42zM434.002 781
c0 8.66699 -1.16504 17.498 -3.49805 26.498s-5.83301 17.333 -10.5 25s-10.334 13.834 -17.001 18.501s-14.334 7 -23.001 7c-36 0 -68.667 -10.667 -98 -32s-55 -48.166 -77 -80.499s-40.333 -68 -55 -107s-26 -76.167 -34 -111.5c13.333 -4 27 -6 41 -6
c32 0 64.5 5.83301 97.5 17.5s62.667 28.667 89 51s48 49.833 65 82.5s25.5 69 25.5 109z" />
    <glyph glyph-name="D" unicode="D" horiz-adv-x="696" 
d="M660 477c0 -54 -4.99609 -110.001 -14.9961 -168.001s-26.667 -111 -50 -159s-54.333 -87.5 -93 -118.5s-86.667 -46.5 -144 -46.5c-28 0 -54.5 3.66699 -79.5 11s-50.167 17.333 -75.5 30c-18.667 -14 -38.834 -24.333 -60.501 -31s-43.834 -10 -66.501 -10
c-8.66699 0 -18.667 1.16699 -30 3.5s-21.833 6.33301 -31.5 12s-17.834 12.834 -24.501 21.501s-10 19.667 -10 33c0 12.667 3.33301 23.5 10 32.5s14.834 16.333 24.501 22s20.167 9.83398 31.5 12.501s21.333 4 30 4c22 0 43 -5 63 -15s39.667 -20.333 59 -31
c14.667 15.333 26.834 32.5 36.501 51.5s17.5 39.333 23.5 61s10.167 43.834 12.5 66.501s3.5 44.667 3.5 66c0 36.667 -0.666992 73.334 -2 110.001s-2 73.334 -2 110.001c0 9.33301 0.166992 23.333 0.5 42s1.16602 39.167 2.49902 61.5s3.66602 44.666 6.99902 66.999
s8 42.666 14 60.999s13.5 33.5 22.5 45.5s19.833 18 32.5 18c5.33301 0 10.166 -2.16699 14.499 -6.5s6.5 -9.83301 6.5 -16.5s-2.16699 -12.167 -6.5 -16.5s-9.16602 -6.5 -14.499 -6.5c-6 0 -11 -5.66699 -15 -17s-7.33301 -25.833 -10 -43.5s-4.66699 -37 -6 -58
s-2.5 -41.333 -3.5 -61s-1.5 -37.5 -1.5 -53.5v-34c0 -34 0.5 -67.667 1.5 -101s1.5 -67 1.5 -101c0 -47.333 -5.83301 -94.666 -17.5 -141.999s-32.167 -88.666 -61.5 -123.999c39.333 -18.667 79.666 -28 120.999 -28c34 0 63.833 6.66699 89.5 20
s48.167 31.166 67.5 53.499s35.666 48.666 48.999 78.999s24 61.833 32 94.5s13.833 66.167 17.5 100.5s5.5 67.166 5.5 98.499c0 52 -9 101 -27 147s-42.5 86.667 -73.5 122s-66.667 63 -107 83s-83.166 30 -128.499 30c-30 0 -60.5 -5.83301 -91.5 -17.5
s-59.167 -28.5 -84.5 -50.5s-46 -48.333 -62 -79s-24 -64.667 -24 -102c0 -16 2 -32.833 6 -50.5s10 -34.167 18 -49.5s18.167 -27.833 30.5 -37.5s26.5 -14.5 42.5 -14.5c18 0 33 6.33301 45 19s21.5 28.167 28.5 46.5s11.833 38 14.5 59s4 39.5 4 55.5
c0 7.33301 2 13 6 17s8.66699 6 14 6s10.166 -2 14.499 -6s6.5 -9.66699 6.5 -17c0 -23.333 -2.16699 -48.166 -6.5 -74.499s-11.666 -50.833 -21.999 -73.5s-24 -41.334 -41 -56.001s-38.167 -22 -63.5 -22c-22 0 -41.667 6 -59 18s-31.833 27.667 -43.5 47
s-20.5 40.5 -26.5 63.5s-9 46.167 -9 69.5c0 44 9.16699 84.167 27.5 120.5s42 67.5 71 93.5s61.5 46 97.5 60s71.667 21 107 21c50.667 0 98.834 -11.333 144.501 -34s85.667 -53.334 120 -92.001s61.666 -84 81.999 -136s30.5 -107.333 30.5 -166zM159.004 49.999
c-13.333 7.33301 -26.832 13.834 -40.499 19.501s-27.834 8.5 -42.501 8.5c-3.33301 0 -8 -0.166992 -14 -0.5s-12 -1.33301 -18 -3s-11.167 -4 -15.5 -7s-6.5 -7.16699 -6.5 -12.5s2.16699 -9.5 6.5 -12.5s9.5 -5.33301 15.5 -7s12 -2.83398 18 -3.50098s10.667 -1 14 -1
c14 0 28 1.5 42 4.5s27.667 7.83301 41 14.5z" />
    <glyph glyph-name="E" unicode="E" horiz-adv-x="521" 
d="M494 188c0 -28.667 -5.67578 -55.334 -17.0088 -80.001s-26.333 -46.167 -45 -64.5s-39.5 -32.666 -62.5 -42.999s-46.5 -15.5 -70.5 -15.5c-39.333 0 -75 9.66699 -107 29s-59.167 45.166 -81.5 77.499s-39.666 68.666 -51.999 108.999s-18.5 81.5 -18.5 123.5
c0 52.667 11.5 100.834 34.5 144.501s55.5 77.5 97.5 101.5c-4.66699 7.33301 -9 14.833 -13 22.5s-7.33301 15.834 -10 24.501c-16 1.33301 -33.833 4.83301 -53.5 10.5s-38 13.834 -55 24.501s-31.333 24.167 -43 40.5s-17.5 36.166 -17.5 59.499
c0 22.667 7 43.334 21 62.001s31 34.5 51 47.5s41.167 23.167 63.5 30.5s41.833 11 58.5 11c5.33301 0 10.166 -2.16699 14.499 -6.5s6.5 -9.83301 6.5 -16.5c0 -7.33301 -2.16699 -13 -6.5 -17s-9.16602 -6 -14.499 -6c-10.667 0 -24.667 -2.66699 -42 -8
s-34.166 -12.833 -50.499 -22.5s-30.5 -20.834 -42.5 -33.501s-18 -26.334 -18 -41.001c0 -15.333 4.33301 -28.166 13 -38.499s19.334 -19 32.001 -26s25.834 -12.167 39.501 -15.5s25.5 -5.66602 35.5 -6.99902c-0.666992 3.33301 -0.833984 7.16602 -0.500977 11.499
s0.5 8.5 0.5 12.5c0 28.667 6.83301 56 20.5 82s31 48.667 52 68s44.333 34.833 70 46.5s50.167 17.5 73.5 17.5c28.667 0 52 -8.83301 70 -26.5s27 -43.5 27 -77.5c0 -33.333 -9.33301 -61.166 -28 -83.499s-41.5 -40.666 -68.5 -54.999s-55.5 -24.833 -85.5 -31.5
s-56 -10.667 -78 -12c2 -5.33301 4 -10.333 6 -15s4.66699 -9 8 -13c14 5.33301 28.333 9.5 43 12.5s29.334 4.5 44.001 4.5c6.66699 0 14.334 -0.833008 23.001 -2.5s17 -4.66699 25 -9s14.667 -10 20 -17s8 -14.833 8 -23.5c0 -10.667 -2.5 -20 -7.5 -28
s-11.167 -14.667 -18.5 -20s-15.5 -9.33301 -24.5 -12s-17.5 -4 -25.5 -4c-17.333 0 -34.166 4 -50.499 12s-31.166 18.333 -44.499 31c-36.667 -18.667 -65.667 -46.834 -87 -84.501s-32 -79.167 -32 -124.5c0 -35.333 5 -70.5 15 -105.5s24.5 -66.5 43.5 -94.5
s42 -50.5 69 -67.5s57.167 -25.5 90.5 -25.5c18 0 36.167 4 54.5 12s34.833 19.167 49.5 33.5s26.667 31.166 36 50.499s14 39.666 14 60.999c0 14 -4.33301 27.333 -13 40s-19.667 19 -33 19c-14.667 0 -24.667 -2.33301 -30 -7s-9 -9.66699 -11 -15
s-3.66699 -10.166 -5 -14.499s-5.66602 -6.5 -12.999 -6.5s-13.166 3.33301 -17.499 10s-6.5 14 -6.5 22c0 8.66699 3.16699 16.667 9.5 24s13.833 13.5 22.5 18.5s17.667 8.66699 27 11s17.333 3.5 24 3.5c12 0 23.333 -2.83301 34 -8.5s20 -13.5 28 -23.5
s14.167 -21.333 18.5 -34s6.5 -25.667 6.5 -39zM412.991 799c0 20 -5 34.665 -15 43.998s-23.667 14 -41 14c-16 0 -31.833 -2.83301 -47.5 -8.5s-30.5 -13.667 -44.5 -24s-26.833 -22.166 -38.5 -35.499s-21.5 -28 -29.5 -44c-4 -8.66699 -7.5 -17.5 -10.5 -26.5
s-4.5 -18.833 -4.5 -29.5v-14c0 -4 0.333008 -8.33301 1 -13c16 1.33301 37 4.33301 63 9s51.333 12.334 76 23.001s46 24.5 64 41.5s27 38.167 27 63.5zM324.991 550.998c0 2 -1.33398 3.5 -4.00098 4.5s-5.66699 1.83301 -9 2.5s-6.66602 1 -9.99902 1h-6
c-8 0 -16 -0.666992 -24 -2l-24 -4c5.33301 -6.66699 12.833 -11 22.5 -13s18.167 -3 25.5 -3c3.33301 0 9 0.833008 17 2.5s12 5.5 12 11.5z" />
    <glyph glyph-name="F" unicode="F" horiz-adv-x="367" 
d="M563 850c0 -6.66699 -2.16602 -12.1699 -6.49902 -16.5029s-9.16602 -6.5 -14.499 -6.5c-20 0 -39.833 1.66699 -59.5 5s-39.167 7 -58.5 11s-38.833 7.66699 -58.5 11s-39.5 5 -59.5 5c-25.333 0 -54.5 -5.16699 -87.5 -15.5s-64.167 -25.166 -93.5 -44.499
s-54 -42.666 -74 -69.999s-30 -58.666 -30 -93.999c0 -14.667 2 -29 6 -43s9.83301 -26.5 17.5 -37.5s17 -19.833 28 -26.5s23.5 -10 37.5 -10c16.667 0 30.167 6 40.5 18s18.333 26.5 24 43.5s9.5 34.833 11.5 53.5s3 35.334 3 50.001c0 6.66699 2 12.167 6 16.5
s8.66699 6.5 14 6.5s10.166 -2.16699 14.499 -6.5s6.5 -9.83301 6.5 -16.5c0 -21.333 -1.66699 -44.333 -5 -69s-9.5 -47.5 -18.5 -68.5s-21.333 -38.5 -37 -52.5s-35.5 -21 -59.5 -21c-20 0 -38 4.5 -54 13.5s-29.667 20.833 -41 35.5s-20 32 -26 52s-9 40.667 -9 62
c0 42.667 11 80.667 33 114s49.5 61.5 82.5 84.5s68.5 40.667 106.5 53s72.667 18.5 104 18.5c20 0 39.833 -1.5 59.5 -4.5s39.167 -6.66699 58.5 -11s38.833 -8 58.5 -11s39.5 -4.5 59.5 -4.5c5.33301 0 10.166 -2.33301 14.499 -7s6.5 -10.334 6.5 -17.001z
M492.001 507.997c0 -8 -2.8291 -14.168 -8.49609 -18.501s-12.5 -8 -20.5 -11s-16 -5.16699 -24 -6.5s-14.333 -2 -19 -2c-9.33301 0 -17 1.66699 -23 5c-11.333 -12.667 -24 -23.167 -38 -31.5s-28.667 -15.166 -44 -20.499c0.666992 -16.667 1.16699 -33 1.5 -49
s0.5 -32.333 0.5 -49c0 -37.333 -2.5 -76.166 -7.5 -116.499s-14.667 -77.333 -29 -111s-34.333 -61.167 -60 -82.5s-59.167 -32 -100.5 -32c-10 0 -20.667 1.33301 -32 4s-21.666 7.16699 -30.999 13.5s-17.166 14.333 -23.499 24s-9.5 21.167 -9.5 34.5
c0 18.667 6.16699 34.334 18.5 47.001s26.166 19 41.499 19c5.33301 0 10.166 -2.16699 14.499 -6.5s6.5 -9.83301 6.5 -16.5c0 -8 -2 -13.5 -6 -16.5s-8.5 -5.33301 -13.5 -7s-9.66699 -3.5 -14 -5.5s-6.5 -6.66699 -6.5 -14c0 -6 2.16699 -11 6.5 -15
s9.33301 -7.16699 15 -9.5s11.667 -3.83301 18 -4.5s11.5 -1 15.5 -1c34.667 0 62.167 9.66699 82.5 29s36 43.666 47 72.999s18.167 61.333 21.5 96s5 67.334 5 98.001c0 15.333 -0.166992 30 -0.5 44s-0.5 28.667 -0.5 44
c-6.66699 -1.33301 -13.334 -2.16602 -20.001 -2.49902s-13.667 -0.5 -21 -0.5c-3.33301 0 -8.33301 0.666992 -15 2s-13.167 3.33301 -19.5 6s-11.833 6 -16.5 10s-7 8.66699 -7 14c0 6 2 11.5 6 16.5s8.66699 7.5 14 7.5c6.66699 0 13 -1.83301 19 -5.5
s12.333 -5.5 19 -5.5c14.667 0 27.667 1.66699 39 5v54c0 23.333 0.5 49 1.5 77s2.83301 56.667 5.5 86s6.66699 55.833 12 79.5s12.666 43 21.999 58s20.666 22.5 33.999 22.5c5.33301 0 10.166 -2 14.499 -6s6.5 -9.33301 6.5 -16c0 -7.33301 -2.16699 -13 -6.5 -17
s-9.16602 -6 -14.499 -6c-6 0 -11 -5.66699 -15 -17s-7.16699 -25.5 -9.5 -42.5s-4.16602 -35.833 -5.49902 -56.5s-2.33301 -40.334 -3 -59.001s-1 -35.667 -1 -51v-29l1 -65c19.333 8 35.666 18.333 48.999 31c-6 8.66699 -10.5 18.667 -13.5 30s-4.5 22.333 -4.5 33
c0 9.33301 0.833008 19.833 2.5 31.5s4.66699 23 9 34s10 20.167 17 27.5s15.5 11 25.5 11c15.333 0 27.5 -7 36.5 -21s13.5 -29 13.5 -45c0 -30.667 -7.33301 -59.667 -22 -87c7.33301 1.33301 14.666 4.16602 21.999 8.49902s14.333 6.5 21 6.5c6 0 11 -2.33301 15 -7
s6 -10.334 6 -17.001zM409.005 598.996c0 2.66699 -0.167969 7.33203 -0.500977 13.999s-2.16602 10 -5.49902 10c-4 0 -7 -2.33301 -9 -7s-3.5 -10.167 -4.5 -16.5s-1.66699 -12.666 -2 -18.999s-0.5 -10.833 -0.5 -13.5c0 -4 0.333008 -8.5 1 -13.5s2 -9.5 4 -13.5
c5.33301 8.66699 9.5 18 12.5 28s4.5 20.333 4.5 31z" />
    <glyph glyph-name="G" unicode="G" horiz-adv-x="618" 
d="M629 176c0 -2.66699 -1.32812 -6.33398 -3.99512 -11.001c-20.667 -38.667 -44.834 -73.834 -72.501 -105.501s-59.834 -62.5 -96.501 -92.5l4 -112c1.33301 -37.333 2 -75 2 -113c0 -35.333 -1 -73.166 -3 -113.499s-7.83301 -77.833 -17.5 -112.5
s-24.334 -63.167 -44.001 -85.5s-47.167 -33.5 -82.5 -33.5c-22.667 0 -43.334 6.66699 -62.001 20s-34.667 30.833 -48 52.5s-23.833 46.167 -31.5 73.5s-11.5 55 -11.5 83c0 52.667 7.83301 97 23.5 133s35.5 67.5 59.5 94.5s53.167 52.5 87.5 76.5s60.166 46 77.499 66
l9 54c-12.667 -21.333 -29 -38.333 -49 -51s-41.333 -19 -64 -19c-39.333 0 -74.5 10.333 -105.5 31s-57.333 47.5 -79 80.5s-38.334 70 -50.001 111s-17.5 82.5 -17.5 124.5c0 28.667 1 57.167 3 85.5s5.66699 56.833 11 85.5c-28.667 19.333 -50.5 46.5 -65.5 81.5
s-22.5 71.5 -22.5 109.5c0 32 6.16699 61.167 18.5 87.5s28.333 48.833 48 67.5s42 32.834 67 42.501s50.167 14.5 75.5 14.5c5.33301 0 10.166 -2 14.499 -6s6.5 -9.66699 6.5 -17c0 -6.66699 -2.16699 -12 -6.5 -16s-9.16602 -6 -14.499 -6
c-20.667 0 -41 -3.83301 -61 -11.5s-38 -18.834 -54 -33.501s-28.833 -32.167 -38.5 -52.5s-14.5 -43.5 -14.5 -69.5c0 -26.667 4.5 -52.834 13.5 -78.501s23.167 -46.834 42.5 -63.501c9.33301 40 22.333 80.833 39 122.5s37.334 79.667 62.001 114
s53.334 62.5 86.001 84.5s69.334 33 110.001 33c14.667 0 27.667 -3.5 39 -10.5s21.166 -16.333 29.499 -28s14.5 -24.834 18.5 -39.501s6 -29.667 6 -45c0 -47.333 -9.33301 -90 -28 -128s-42.667 -70.167 -72 -96.5s-62.666 -46.666 -99.999 -60.999s-75 -21.5 -113 -21.5
c-8 0 -16.167 0.5 -24.5 1.5s-16.5 2.83301 -24.5 5.5c-4 -24.667 -6.83301 -49.667 -8.5 -75s-2.5 -50.666 -2.5 -75.999c0 -35.333 4.83301 -70.666 14.5 -105.999s23.5 -67.333 41.5 -96s40.167 -52.167 66.5 -70.5s56.166 -27.5 89.499 -27.5
c17.333 0 32.5 4.5 45.5 13.5s24.167 20.5 33.5 34.5s16.333 30 21 48s7 35.667 7 53c0 14.667 -0.166992 29.167 -0.5 43.5s-0.5 28.833 -0.5 43.5c0 6.66699 2 12.334 6 17.001s8.66699 7 14 7s10.166 -2.33301 14.499 -7s6.5 -10.334 6.5 -17.001
c0 -40 0.833008 -79.5 2.5 -118.5s3.5 -78.167 5.5 -117.5c19.333 17.333 38 36 56 56s34.667 41.667 50 65c4.66699 6.66699 8.66699 13.834 12 21.501s7.33301 14.5 12 20.5c4.66699 6.66699 10.334 10 17.001 10c5.33301 0 10.166 -2.5 14.499 -7.5s6.5 -10.5 6.5 -16.5z
M427.005 778c0 8.66699 -1.16309 17.5 -3.49609 26.5s-5.83301 17.333 -10.5 25s-10.167 14 -16.5 19s-13.833 7.5 -22.5 7.5c-36 0 -68.333 -10.833 -97 -32.5s-53.834 -48.834 -75.501 -81.501s-39.667 -68.5 -54 -107.5s-25.5 -75.833 -33.5 -110.5
c13.333 -4.66699 26.666 -7 39.999 -7c32 0 64.167 5.83301 96.5 17.5s61.666 28.834 87.999 51.501s47.666 50 63.999 82s24.5 68.667 24.5 110zM418.009 -290c0 37.333 -0.5 74.1689 -1.5 110.502s-2.16699 72.833 -3.5 109.5l-68 -57
c-18.667 -14.667 -36.5 -29.834 -53.5 -45.501s-31.833 -32.834 -44.5 -51.501s-22.834 -40.167 -30.501 -64.5s-11.5 -52.833 -11.5 -85.5c0 -20.667 2.83301 -41 8.5 -61s13.167 -38.333 22.5 -55s20.833 -30 34.5 -40s28.5 -15 44.5 -15
c25.333 0 44.833 8.83301 58.5 26.5s23.834 39.167 30.501 64.5s10.667 53 12 83s2 57 2 81z" />
    <glyph glyph-name="H" unicode="H" horiz-adv-x="811" 
d="M705 759c0 6.66699 -0.666016 15.3291 -1.99902 25.9961s-3.5 20.834 -6.5 30.501s-7.33301 18 -13 25s-12.5 10.5 -20.5 10.5c-20.667 0 -39.334 -5.5 -56.001 -16.5s-31.5 -25.667 -44.5 -44s-24.333 -39.166 -34 -62.499s-18 -47.166 -25 -71.499
s-12.833 -48.166 -17.5 -71.499s-8.33398 -44 -11.001 -62c22.667 9.33301 47.334 20.833 74.001 34.5s51.5 30 74.5 49s42.333 41.167 58 66.5s23.5 54 23.5 86zM431.001 839.995c0 3.33301 -1.5 6.00098 -4.5 8.00098s-6.66699 3.5 -11 4.5s-8.5 1.66699 -12.5 2
s-7 0.5 -9 0.5c-8 0 -15.333 -2.33301 -22 -7s-12.667 -10.334 -18 -17.001c14.667 -4 28 -6 40 -6h9c4 0 8.16699 0.5 12.5 1.5s8 2.5 11 4.5s4.5 5 4.5 9zM30.001 142.996c0 -7.33301 0.666992 -16.332 2 -26.999s3.66602 -20.834 6.99902 -30.501
s7.83301 -18.167 13.5 -25.5s12.834 -11 21.501 -11c21.333 0 40.5 5.66699 57.5 17s32.167 26.333 45.5 45s25 40 35 64s18.667 48.5 26 73.5s13.333 49.333 18 73s8.66699 44.834 12 63.501c-24 -10 -49.667 -21.833 -77 -35.5s-52.833 -30.334 -76.5 -50.001
s-43.667 -42.5 -60 -68.5s-24.5 -55.333 -24.5 -88zM316.001 406.997c-3.33301 -26 -7.83203 -53.8262 -13.499 -83.4932s-12.834 -59.5 -21.501 -89.5s-19.334 -58.833 -32.001 -86.5s-27.334 -52.167 -44.001 -73.5s-35.834 -38.666 -57.501 -51.999
s-46.167 -20.333 -73.5 -21c-16 0 -29.333 4.83301 -40 14.5s-19.5 21.667 -26.5 36s-12 29.666 -15 45.999s-4.5 31.5 -4.5 45.5c0 42 9.33301 78.667 28 110s42 58.5 70 81.5s58.667 42.833 92 59.5s65 30.667 95 42l1 195c0 30 1.33301 59.5 4 88.5
s8.33398 57.5 17.001 85.5c-7.33301 3.33301 -16.333 7.83301 -27 13.5l-33 17c-11.333 5.66699 -22.333 10.5 -33 14.5s-19.667 6 -27 6c-16 0 -33 -2.66699 -51 -8s-34.667 -13.166 -50 -23.499s-28 -23.5 -38 -39.5s-15 -34.667 -15 -56
c0 -10.667 1.66699 -21.334 5 -32.001s8 -20.334 14 -29.001s13.167 -15.667 21.5 -21s17.5 -8 27.5 -8c15.333 0 29.666 5.33301 42.999 16s20 25.667 20 45c0 6.66699 2 12 6 16s8.66699 6 14 6s10.166 -2 14.499 -6s6.5 -9.33301 6.5 -16c0 -16 -3 -30.667 -9 -44
s-13.833 -24.5 -23.5 -33.5s-20.834 -16 -33.501 -21s-25.334 -7.5 -38.001 -7.5c-16 0 -30.667 3.66699 -44 11s-24.833 17.333 -34.5 30s-17.167 27.167 -22.5 43.5s-8 33.166 -8 50.499c0 28.667 6.16699 53.667 18.5 75s28 39.166 47 53.499s40 25.166 63 32.499
s45.167 11 66.5 11c10 0 21 -2 33 -6s24.167 -8.83301 36.5 -14.5s24.333 -11.5 36 -17.5s22.5 -11.333 32.5 -16c9.33301 16.667 20.833 29.667 34.5 39s29.167 14 46.5 14c8 0 16.5 -1 25.5 -3s17.5 -5.33301 25.5 -10s14.667 -10.834 20 -18.501s8 -17.167 8 -28.5
c0 -10.667 -2.66699 -19.834 -8 -27.501s-11.833 -14 -19.5 -19s-16.167 -8.66699 -25.5 -11s-18 -3.5 -26 -3.5c-18.667 0 -38.334 3.66699 -59.001 11c-7.33301 -24.667 -12.5 -50.834 -15.5 -78.501s-4.5 -54.5 -4.5 -80.5v-175c6 2.66699 12 5.16699 18 7.5
s12 5.16602 18 8.49902c-0.666992 4.66699 -1 9.33398 -1 14.001v14v30c0 8 1.33301 16.667 4 26s8.66699 14 18 14c6 0 11 -2.33301 15 -7s6 -10.334 6 -17.001c0 -10 -0.166992 -19.833 -0.5 -29.5s-0.5 -19.167 -0.5 -28.5l39 17c2.66699 23.333 6.5 49.333 11.5 78
s11.667 57.5 20 86.5s18.5 57.333 30.5 85s26.167 52 42.5 73s35 38 56 51s44.833 19.5 71.5 19.5c14.667 0 27.334 -4.66699 38.001 -14s19.334 -21 26.001 -35s11.5 -29 14.5 -45s4.5 -31 4.5 -45c0 -40.667 -9 -76.334 -27 -107.001s-40.667 -57.334 -68 -80.001
s-57.166 -42 -89.499 -58s-62.833 -29.667 -91.5 -41c-0.666992 -8.66699 -1.16699 -17.167 -1.5 -25.5s-0.5 -16.5 -0.5 -24.5c0 -16 1 -36.667 3 -62s5.33301 -52.5 10 -81.5s10.834 -58.167 18.501 -87.5s16.834 -55.833 27.501 -79.5s23.167 -43 37.5 -58
s30.5 -22.5 48.5 -22.5c18.667 0 35.667 4.33301 51 13s28.5 20.167 39.5 34.5s19.5 30.833 25.5 49.5s9 38.334 9 59.001c0 14 -4.16699 27.333 -12.5 40s-19.166 19 -32.499 19c-10 0 -16.667 -2.66699 -20 -8s-5.66602 -11 -6.99902 -17s-3.16602 -11.667 -5.49902 -17
s-7.5 -8 -15.5 -8c-5.33301 0 -10 2 -14 6s-6 9.66699 -6 17c0 21.333 7 38.833 21 52.5s29.667 20.5 47 20.5c12.667 0 24.167 -3 34.5 -9s19.333 -13.833 27 -23.5s13.667 -20.834 18 -33.501s6.5 -25.667 6.5 -39c0 -26.667 -4 -52.167 -12 -76.5
s-19.333 -45.833 -34 -64.5s-32.167 -33.5 -52.5 -44.5s-42.833 -16.5 -67.5 -16.5c-24 0 -45.333 8 -64 24s-34.834 36.667 -48.501 62s-25.167 54 -34.5 86s-16.833 64.167 -22.5 96.5s-9.83398 63.333 -12.501 93s-4 54.834 -4 75.501v17v8
c0 2.66699 0.333008 5.33398 1 8.00098c-5.33301 -2.66699 -11 -5.33398 -17 -8.00098s-11.667 -5 -17 -7v-88c0 -6.66699 -2 -12.5 -6 -17.5s-9 -7.5 -15 -7.5c-9.33301 0 -15.166 4.33301 -17.499 13s-3.5 17.667 -3.5 27v17c0 6 0.166992 12.5 0.5 19.5
s0.5 13.5 0.5 19.5c-6 -3.33301 -12.167 -6.16602 -18.5 -8.49902s-12.5 -5.16602 -18.5 -8.49902z" />
    <glyph glyph-name="I" unicode="I" horiz-adv-x="380" 
d="M473 839c0 -10.667 -2.66699 -19.8311 -8 -27.498s-11.833 -14 -19.5 -19s-16.167 -8.5 -25.5 -10.5s-18 -3 -26 -3c-20 0 -39.667 3.33301 -59 10c-7.33301 -24.667 -12.5 -50.834 -15.5 -78.501s-4.5 -54.5 -4.5 -80.5c0 -57.333 0.333008 -114.666 1 -171.999
s1 -115 1 -173c0 -36.667 -3 -72.834 -9 -108.501s-16.167 -67.667 -30.5 -96s-33.833 -51.333 -58.5 -69s-56 -26.5 -94 -26.5c-10 0 -20.5 1.5 -31.5 4.5s-21.333 7.66699 -31 14s-17.667 14.166 -24 23.499s-9.5 21 -9.5 35c0 18 6 33.5 18 46.5s26 19.5 42 19.5
c6 0 11 -2.16699 15 -6.5s6 -9.83301 6 -16.5c0 -8.66699 -2 -14.5 -6 -17.5s-8.5 -5.16699 -13.5 -6.5s-9.5 -3.16602 -13.5 -5.49902s-6 -6.83301 -6 -13.5s2 -12 6 -16s9 -7.16699 15 -9.5s12 -3.83301 18 -4.5s11 -1 15 -1c31.333 0 56.833 7.83301 76.5 23.5
s35 35.834 46 60.501s18.5 52 22.5 82s6 59.333 6 88c0 58 -0.333008 115.667 -1 173s-1 114.666 -1 171.999c0 29.333 1.33301 58.833 4 88.5s8.33398 58.167 17.001 85.5c-7.33301 3.33301 -16.333 8 -27 14s-21.667 11.833 -33 17.5s-22.333 10.334 -33 14.001
s-19.667 5.5 -27 5.5c-16 0 -33 -2.66699 -51 -8s-34.667 -13.166 -50 -23.499s-28 -23.5 -38 -39.5s-15 -34.667 -15 -56c0 -10 1.66699 -20.333 5 -31s8 -20.5 14 -29.5s13.167 -16.167 21.5 -21.5s17.5 -8 27.5 -8c15.333 0 29.666 5.33301 42.999 16s20 25.667 20 45
c0 6.66699 2 12.167 6 16.5s8.66699 6.5 14 6.5s10.166 -2.16699 14.499 -6.5s6.5 -9.83301 6.5 -16.5c0 -16 -3 -30.5 -9 -43.5s-13.833 -24.167 -23.5 -33.5s-20.667 -16.5 -33 -21.5s-25.166 -7.5 -38.499 -7.5c-16 0 -30.667 3.83301 -44 11.5s-24.833 17.667 -34.5 30
s-17.167 26.666 -22.5 42.999s-8 33.166 -8 50.499c0 28.667 6.16699 53.834 18.5 75.501s28 39.667 47 54s40 25.166 63 32.499s45.167 11 66.5 11c10 0 21 -2 33 -6s24.167 -8.83301 36.5 -14.5s24.333 -11.667 36 -18s22.5 -11.833 32.5 -16.5
c9.33301 16.667 20.833 29.667 34.5 39s29.167 14 46.5 14c8 0 16.5 -1 25.5 -3s17.5 -5.5 25.5 -10.5s14.667 -11.333 20 -19s8 -16.834 8 -27.501zM431 839.003c0 4 -1.5 6.83398 -4.5 8.50098s-6.66699 3 -11 4s-8.5 1.66699 -12.5 2s-7 0.5 -9 0.5
c-8 0 -15.333 -2.33301 -22 -7s-12.667 -10.334 -18 -17.001c14.667 -4 28 -6 40 -6c2 0 5 0.166992 9 0.5s8.16699 1 12.5 2s8 2.5 11 4.5s4.5 4.66699 4.5 8z" />
    <glyph glyph-name="J" unicode="J" horiz-adv-x="474" 
d="M496 176c0 -1.33301 -0.666992 -3.32715 -2 -5.99414c-7.33301 -20.667 -17 -39.834 -29 -57.501s-25.5 -34.334 -40.5 -50.001s-30.833 -30.167 -47.5 -43.5l-50 -40l2 -47.5c0.666992 -15.667 1 -31.5 1 -47.5v-204c0 -27.333 -2.66699 -57.5 -8 -90.5
s-13.666 -63.667 -24.999 -92s-25.5 -52 -42.5 -71s-37.5 -28.5 -61.5 -28.5c-22.667 0 -42.834 8.66699 -60.501 26s-32.167 39.5 -43.5 66.5s-20 56.5 -26 88.5s-9 62 -9 90c0 47.333 7.33301 88.5 22 123.5s33.167 65.833 55.5 92.5s47 50 74 70l78.5 58
c-6.66699 205.333 -10 410.333 -10 615c0 28.667 1.33301 58.167 4 88.5s8.33398 59.166 17.001 86.499c-7.33301 3.33301 -16.333 7.83301 -27 13.5l-33 17c-11.333 5.66699 -22.333 10.667 -33 15s-19.667 6.5 -27 6.5c-16 0 -33 -2.66699 -51 -8s-34.667 -13.333 -50 -24
s-28 -24 -38 -40s-15 -34.667 -15 -56c0 -10.667 1.5 -21.334 4.5 -32.001s7.5 -20.334 13.5 -29.001s13.167 -15.667 21.5 -21s17.833 -8 28.5 -8c15.333 0 29.666 5.33301 42.999 16s20 25.667 20 45c0 6.66699 2 12 6 16s8.66699 6 14 6s10.166 -2 14.499 -6
s6.5 -9.33301 6.5 -16c0 -16 -3 -30.667 -9 -44s-13.833 -24.666 -23.5 -33.999s-20.667 -16.5 -33 -21.5s-25.166 -7.5 -38.499 -7.5c-16 0 -30.833 3.66699 -44.5 11s-25.167 17.5 -34.5 30.5s-16.666 27.667 -21.999 44s-8 33.166 -8 50.499c0 28.667 6 53.667 18 75
s27.5 39.333 46.5 54s40 25.834 63 33.501s45.5 11.5 67.5 11.5c10.667 0 22 -2.16699 34 -6.5s24 -9.33301 36 -15s23.833 -11.667 35.5 -18s22.5 -11.833 32.5 -16.5c9.33301 16.667 20.833 29.834 34.5 39.501s29.167 14.5 46.5 14.5c8 0 16.667 -1 26 -3
s17.833 -5.33301 25.5 -10s14.167 -10.834 19.5 -18.501s8 -17.167 8 -28.5c0 -10.667 -2.66699 -20 -8 -28s-11.833 -14.5 -19.5 -19.5s-16.167 -8.66699 -25.5 -11s-18 -3.5 -26 -3.5c-10 0 -20 1 -30 3s-19.667 5 -29 9c-7.33301 -24.667 -12.5 -51.167 -15.5 -79.5
s-4.5 -55.5 -4.5 -81.5c0 -99.333 0.833008 -197.833 2.5 -295.5s4.5 -196.5 8.5 -296.5c21.333 15.333 42.333 33 63 53s37.667 42 51 66c3.33301 5.33301 6.16602 10.666 8.49902 15.999s5.16602 10.666 8.49902 15.999c4.66699 8.66699 10.334 13 17.001 13
c5.33301 0 10.333 -2.5 15 -7.5s7 -10.5 7 -16.5zM431 839.006c0 4 -1.5 6.83398 -4.5 8.50098s-6.66699 3 -11 4s-8.5 1.66699 -12.5 2s-7 0.5 -9 0.5c-8 0 -15.333 -2.33301 -22 -7s-12.667 -10.334 -18 -17.001c14.667 -4 28 -6 40 -6c2 0 5 0.166992 9 0.5
s8.16699 1 12.5 2s8 2.5 11 4.5s4.5 4.66699 4.5 8zM288 -115.993c0 10 -0.5 20.334 -1.5 31.001s-1.5 21.667 -1.5 33l-63.5 -47.5c-22.333 -17 -42.833 -36.167 -61.5 -57.5s-34 -46.5 -46 -75.5s-18 -61.833 -18 -98.5c0 -16 0.5 -31.167 1.5 -45.5
s3.16699 -28.5 6.5 -42.5c2.66699 -13.333 6.66699 -27.333 12 -42s12 -28.334 20 -41.001s16.833 -23 26.5 -31s19.834 -12 30.501 -12c16.667 0 31.167 8.16699 43.5 24.5s22.166 36 29.499 59s12.833 47.5 16.5 73.5s5.5 48.667 5.5 68v204z" />
    <glyph glyph-name="K" unicode="K" horiz-adv-x="741" 
d="M792 187c0 -27.333 -4.33301 -53.1709 -13 -77.5039s-20.5 -45.666 -35.5 -63.999s-32.833 -33 -53.5 -44s-43 -16.5 -67 -16.5c-21.333 0 -40.333 5.33301 -57 16s-30.834 24.5 -42.501 41.5s-20.667 36.333 -27 58s-9.5 43.5 -9.5 65.5
c0 32.667 0.166992 65.334 0.5 98.001s0.5 65.334 0.5 98.001c0 14 -1.33301 27.333 -4 40s-7.66699 24.334 -15 35.001c-11.333 -11.333 -23.666 -19.666 -36.999 -24.999s-27.666 -8 -42.999 -8c-6.66699 0 -14.167 1.5 -22.5 4.5s-16.333 7.16699 -24 12.5
s-14 11.666 -19 18.999s-7.5 15.666 -7.5 24.999c0 8.66699 2.66699 16.5 8 23.5s11.666 12.833 18.999 17.5s15.166 8 23.499 10s15.833 3 22.5 3c12.667 0 25.334 -1.33301 38.001 -4s24.667 -7.33398 36 -14.001c11.333 22.667 19.166 48.834 23.499 78.501
s6.5 57.834 6.5 84.501c0 30 4 59 12 87s19.5 53 34.5 75s33.333 39.833 55 53.5s46.5 20.5 74.5 20.5c16 0 30.167 -3.5 42.5 -10.5s22.5 -16.5 30.5 -28.5s14 -25.833 18 -41.5s6 -31.834 6 -48.501c0 -6.66699 -2 -12.334 -6 -17.001s-9 -7 -15 -7
s-10.833 2.33301 -14.5 7s-5.5 10.334 -5.5 17.001c0 10 -1 20 -3 30s-5.16699 19 -9.5 27s-10 14.5 -17 19.5s-15.833 7.5 -26.5 7.5c-22 0 -41.5 -5.83301 -58.5 -17.5s-31 -26.5 -42 -44.5s-19.333 -38.333 -25 -61s-8.5 -45.334 -8.5 -68.001
c0 -32 -2.83301 -65 -8.5 -99s-15.834 -64.333 -30.501 -91c8.66699 -10.667 15.167 -21.5 19.5 -32.5s7.5 -22.5 9.5 -34.5s3 -24.333 3 -37v-39v-165c0 -15.333 2.16699 -31 6.5 -47s10.5 -30.667 18.5 -44s17.833 -24.166 29.5 -32.499s25.167 -12.5 40.5 -12.5
c18.667 0 35.834 4.5 51.501 13.5s29.167 20.5 40.5 34.5s20.166 30.5 26.499 49.5s9.5 38.833 9.5 59.5c0 14 -4.16699 27.167 -12.5 39.5s-19.166 18.5 -32.499 18.5c-10 0 -16.5 -2.66699 -19.5 -8s-5.16699 -11.166 -6.5 -17.499s-3.16602 -12 -5.49902 -17
s-7.5 -7.5 -15.5 -7.5c-6 0 -11 2 -15 6s-6 9.33301 -6 16c0 21.333 6.83301 38.833 20.5 52.5s29.5 20.5 47.5 20.5c12.667 0 24.167 -2.83301 34.5 -8.5s19.333 -13.167 27 -22.5s13.667 -20.333 18 -33s6.5 -25.667 6.5 -39zM472 838.995
c0 -10.667 -2.49805 -19.8311 -7.49805 -27.498s-11.5 -14 -19.5 -19s-16.5 -8.66699 -25.5 -11s-17.5 -3.5 -25.5 -3.5c-20.667 0 -41 3.33301 -61 10c-7.33301 -24 -12.166 -50 -14.499 -78s-3.5 -54.667 -3.5 -80c0 -58 0.166992 -115.667 0.5 -173
s0.5 -114.666 0.5 -171.999c0 -36 -2.83301 -71.833 -8.5 -107.5s-15.667 -67.834 -30 -96.501s-33.833 -51.834 -58.5 -69.501s-56 -26.5 -94 -26.5c-10 0 -20.5 1.5 -31.5 4.5s-21.333 7.5 -31 13.5s-17.667 13.833 -24 23.5s-9.5 21.167 -9.5 34.5
c0 18.667 5.83301 35.334 17.5 50.001s25.834 22 42.501 22c6 0 11 -2.33301 15 -7s6 -10.334 6 -17.001c0 -8.66699 -2 -14.167 -6 -16.5s-8.5 -4.33301 -13.5 -6s-9.66699 -4 -14 -7s-6.5 -9.16699 -6.5 -18.5c0 -5.33301 2.33301 -10 7 -14s10 -7.16699 16 -9.5
s12 -4.16602 18 -5.49902s10.667 -2 14 -2c31.333 0 56.666 7.83301 75.999 23.5s34.5 35.834 45.5 60.501s18.5 52 22.5 82s6 59.667 6 89c0 57.333 -0.166992 114.666 -0.5 171.999s-0.5 115 -0.5 173c0 28 1.66699 57.167 5 87.5s9.33301 58.833 18 85.5
c-7.33301 4 -16.5 8.66699 -27.5 14l-34 16.5c-11.667 5.66699 -22.834 10.334 -33.501 14.001s-19.667 5.5 -27 5.5c-15.333 0 -32 -2.33301 -50 -7s-34.667 -12.167 -50 -22.5s-28.166 -23.5 -38.499 -39.5s-15.5 -34.667 -15.5 -56c0 -10.667 1.5 -21.334 4.5 -32.001
s7.5 -20.334 13.5 -29.001s13.167 -15.667 21.5 -21s17.833 -8 28.5 -8c15.333 0 29.5 5.33301 42.5 16s19.5 25.334 19.5 44.001c0 7.33301 2 13 6 17s9 6 15 6c13.333 0 20 -7.66699 20 -23c0 -16 -2.83301 -30.333 -8.5 -43s-13.334 -23.834 -23.001 -33.501
s-20.667 -17 -33 -22s-25.166 -7.5 -38.499 -7.5c-16 0 -30.667 3.83301 -44 11.5s-25 17.834 -35 30.501s-17.667 27.167 -23 43.5s-8 33.166 -8 50.499c0 28 6.16699 52.833 18.5 74.5s28 39.834 47 54.501s40.167 25.5 63.5 32.5s45.666 10.5 66.999 10.5
c10.667 0 22 -2 34 -6s24.167 -8.83301 36.5 -14.5s24.333 -11.834 36 -18.501s22.5 -12.334 32.5 -17.001c9.33301 16.667 20.666 30.167 33.999 40.5s28.666 15.5 45.999 15.5c8 0 16.5 -1.16699 25.5 -3.5s17.5 -5.83301 25.5 -10.5s14.5 -11 19.5 -19
s7.5 -17.333 7.5 -28zM431.002 838.998c0 2.66699 -1.66699 5 -5 7s-7.16602 3.5 -11.499 4.5s-8.5 1.66699 -12.5 2s-6.66699 0.5 -8 0.5c-16 0 -30 -7.66699 -42 -23c15.333 -4 29.333 -6 42 -6c1.33301 0 4 0.166992 8 0.5s8.16699 1 12.5 2s8.16602 2.5 11.499 4.5
s5 4.66699 5 8zM434.002 464.998c-14.667 6 -29.667 9 -45 9c-2.66699 0 -8 -0.333008 -16 -1s-12 -3 -12 -7c0 -4.66699 3.83301 -8.5 11.5 -11.5s13.167 -4.5 16.5 -4.5c17.333 0 32.333 5 45 15z" />
    <glyph glyph-name="L" unicode="L" horiz-adv-x="542" 
d="M563 141c0 -4 -1.66602 -8.67383 -4.99902 -14.0068c-11.333 -17.333 -23.666 -34.333 -36.999 -51s-28 -31.667 -44 -45s-33 -24.166 -51 -32.499s-37 -12.5 -57 -12.5c-30 0 -58.833 3 -86.5 9s-55.167 16.667 -82.5 32c-16.667 -15.333 -35 -26 -55 -32
s-40.333 -9 -61 -9c-8 0 -18 1.33301 -30 4s-23.5 6.83398 -34.5 12.501s-20.333 12.834 -28 21.501s-11.5 19 -11.5 31c0 14 3.5 25.333 10.5 34s15.5 15.5 25.5 20.5s20.833 8.66699 32.5 11s21.834 3.5 30.501 3.5c22 0 41.5 -4 58.5 -12s35.167 -17.667 54.5 -29
c11.333 14.667 20.166 31.5 26.499 50.5s11.333 38.833 15 59.5s6 41.5 7 62.5s1.5 40.5 1.5 58.5c0 27.333 -1 54.5 -3 81.5l-6 81.5c-16 -2 -31.667 -3 -47 -3c-26.667 0 -50.834 5.66699 -72.501 17s-40.334 26.833 -56.001 46.5s-27.667 42.667 -36 69
s-12.5 54.166 -12.5 83.499c0 32 6.16699 61 18.5 87s28.5 48.167 48.5 66.5s42.667 32.5 68 42.5s51 15 77 15c5.33301 0 10.166 -2.16699 14.499 -6.5s6.5 -9.83301 6.5 -16.5s-2.16699 -12.167 -6.5 -16.5s-9.16602 -6.5 -14.499 -6.5
c-20.667 0 -41.167 -3.66699 -61.5 -11s-38.666 -18.333 -54.999 -33s-29.5 -32.167 -39.5 -52.5s-15 -43.166 -15 -68.499c0 -22.667 3.16699 -44.334 9.5 -65.001s15.333 -39 27 -55s26 -28.5 43 -37.5s35.833 -13.5 56.5 -13.5c7.33301 0 14.833 0.333008 22.5 1
s15.167 2 22.5 4l-4 84.5c-1.33301 27.667 -2 56.167 -2 85.5c0 30.667 4.33301 58.834 13 84.501s20.834 47.334 36.501 65.001s34.667 31.5 57 41.5s47.166 15 74.499 15c15.333 0 29 -3.16699 41 -9.5s22.167 -15.166 30.5 -26.499s14.833 -24.333 19.5 -39s7 -30 7 -46
c0 -38 -6.33301 -73 -19 -105s-29.5 -60.333 -50.5 -85s-45.5 -45.5 -73.5 -62.5s-57 -30.167 -87 -39.5l6 -86.5c2 -29 3 -57.833 3 -86.5c0 -21.333 -0.666992 -43.166 -2 -65.499s-3.83301 -44.5 -7.5 -66.5s-9 -43.333 -16 -64s-16.167 -39.667 -27.5 -57
c22 -10.667 44.667 -18.334 68 -23.001s47 -7 71 -7s45.5 6.83301 64.5 20.5s35.5 28.834 49.5 45.501s25.833 31.834 35.5 45.501s17.5 20.5 23.5 20.5c5.33301 0 10.166 -2.16699 14.499 -6.5s6.5 -9.5 6.5 -15.5zM463.001 778.993c0 20 -4.83301 37.498 -14.5 52.498
s-23.834 22.5 -42.501 22.5c-44 0 -78.333 -14.167 -103 -42.5s-37 -67.5 -37 -117.5c0 -26.667 0.5 -53.5 1.5 -80.5s2.16699 -53.833 3.5 -80.5c25.333 8 49.5 19.333 72.5 34s43.333 32.334 61 53.001s31.834 44.334 42.501 71.001s16 56 16 88zM158.001 50.9912
c-13.333 7.33301 -26.168 13.5 -38.501 18.5s-25.833 7.5 -40.5 7.5h-15c-6 0 -12 -0.666992 -18 -2s-11.5 -3.33301 -16.5 -6s-7.83301 -6.66699 -8.5 -12c5.33301 -8.66699 15 -15.167 29 -19.5s25.333 -6.5 34 -6.5c12.667 0 25.334 1.5 38.001 4.5
s24.667 8.16699 36 15.5z" />
    <glyph glyph-name="M" unicode="M" horiz-adv-x="931" 
d="M899 187c0 -27.333 -4.33887 -53.165 -13.0059 -77.498s-20.667 -45.5 -36 -63.5s-33.5 -32.5 -54.5 -43.5s-43.5 -16.5 -67.5 -16.5c-36.667 0 -65.5 11.167 -86.5 33.5s-36.667 50 -47 83s-16.666 68.5 -18.999 106.5s-3.5 72.667 -3.5 104
c0 64.667 3.16699 128.167 9.5 190.5s9.5 125.833 9.5 190.5c0 17.333 0.833008 34.166 2.5 50.499s2.5 33.166 2.5 50.499c0 5.33301 -0.166992 11.5 -0.5 18.5s-1.33301 13.5 -3 19.5s-4.33398 11 -8.00098 15s-8.5 6 -14.5 6c-3.33301 0 -6.16602 -2.66699 -8.49902 -8
s-4.33301 -11.333 -6 -18s-2.83398 -13.5 -3.50098 -20.5s-1 -11.833 -1 -14.5c-9.33301 -108.667 -17.166 -217.334 -23.499 -326.001l-18.5 -326c-0.666992 -12.667 -1.16699 -27.834 -1.5 -45.501s-2.33301 -34.834 -6 -51.501s-9.33398 -31 -17.001 -43
s-19.5 -18 -35.5 -18c-14.667 0 -25.834 5.16699 -33.501 15.5s-13 22.666 -16 36.999s-4.5 29.5 -4.5 45.5v43c0 2.66699 -0.166992 5.33398 -0.5 8.00098s-0.5 5.66699 -0.5 9c-5.33301 76 -9.66602 151.833 -12.999 227.5s-7 151.5 -11 227.5
c-1.33301 32.667 -3.33301 65 -6 97s-4.66699 64.333 -6 97v14c0 6.66699 -0.333008 13.834 -1 21.501s-1.66699 14.334 -3 20.001s-3.33301 8.5 -6 8.5c-6 0 -10.667 -4 -14 -12s-6 -17.333 -8 -28s-3.33301 -21 -4 -31s-1 -17.333 -1 -22
c-5.33301 -90.667 -11.666 -180.667 -18.999 -270s-16.666 -178.666 -27.999 -267.999c-4 -32.667 -10.833 -63.5 -20.5 -92.5s-22.667 -54.167 -39 -75.5s-36.166 -38.166 -59.499 -50.499s-51 -18.5 -83 -18.5c-10 0 -20.5 1.33301 -31.5 4s-21 7 -30 13
s-16.333 13.833 -22 23.5s-8.5 21.5 -8.5 35.5c0 20 6.16699 36 18.5 48s26.833 18 43.5 18c6 0 11 -2 15 -6s6 -9.66699 6 -17c0 -8.66699 -2.16699 -14.334 -6.5 -17.001s-9.16602 -4.83398 -14.499 -6.50098s-10.166 -3.66699 -14.499 -6s-6.5 -7.16602 -6.5 -14.499
c0 -6.66699 1.83301 -12 5.5 -16s8.16699 -7 13.5 -9s11 -3.33301 17 -4s11 -1 15 -1c26.667 0 49.334 5.33301 68.001 16s34.5 25.167 47.5 43.5s23.167 39.5 30.5 63.5s12.666 49.333 15.999 76c11.333 89.333 20.5 178.333 27.5 267s13.5 177.667 19.5 267
c0.666992 13.333 1.83398 27.666 3.50098 42.999s4.66699 29.833 9 43.5s10.833 25.334 19.5 35.001s20.334 14.5 35.001 14.5c12.667 0 22.334 -3.66699 29.001 -11s11.5 -16.166 14.5 -26.499s4.66699 -21.5 5 -33.5s0.833008 -23.333 1.5 -34
c6 -108.667 11.667 -217.167 17 -325.5s11.666 -216.833 18.999 -325.5c0.666992 -6.66699 1 -13 1 -19v-20v-17c0 -8 0.5 -16.5 1.5 -25.5s2.33301 -16.833 4 -23.5s4.5 -10 8.5 -10c5.33301 0 9.16602 5.16699 11.499 15.5s4.16602 22.166 5.49902 35.499
s2.16602 26.166 2.49902 38.499s0.5 20.833 0.5 25.5c5.33301 109.333 11.166 218.333 17.499 327s14.5 217.334 24.5 326.001l4.5 33.5c1.66699 12.333 4.66699 23.5 9 33.5s10.166 18.5 17.499 25.5s16.666 10.5 27.999 10.5c14 0 25.333 -3.5 34 -10.5s15.5 -16 20.5 -27
s8.33301 -23.167 10 -36.5s2.5 -26.333 2.5 -39c0 -16 -0.833008 -31.667 -2.5 -47s-2.5 -30.666 -2.5 -45.999c0 -65.333 -3.33301 -130.166 -10 -194.499s-10 -129.166 -10 -194.499c0 -22.667 0.666992 -49.834 2 -81.501s5.66602 -61.834 12.999 -90.501
s18.833 -52.834 34.5 -72.501s37.834 -29.5 66.501 -29.5c18.667 0 35.834 4.33301 51.501 13s29.334 20.167 41.001 34.5s20.834 31 27.501 50s10 38.5 10 58.5c0 14.667 -4.33301 28.334 -13 41.001s-19.667 19 -33 19c-9.33301 0 -15.5 -2.66699 -18.5 -8
s-5.33301 -11.166 -7 -17.499s-3.66699 -12 -6 -17s-7.5 -7.5 -15.5 -7.5c-5.33301 0 -10 2 -14 6s-6 9.33301 -6 16c0 21.333 6.66699 38.833 20 52.5s29 20.5 47 20.5c12.667 0 24.334 -2.83301 35.001 -8.5s19.834 -13.334 27.501 -23.001s13.667 -20.834 18 -33.501
s6.5 -26 6.5 -40z" />
    <glyph glyph-name="N" unicode="N" horiz-adv-x="627" 
d="M775 724c0 -16 -3.16602 -30.3271 -9.49902 -42.9941s-14.666 -23.167 -24.999 -31.5s-21.666 -14.666 -33.999 -18.999s-24.833 -6.5 -37.5 -6.5c-7.33301 0 -14.833 1 -22.5 3s-14.667 5.33301 -21 10s-11.5 10.5 -15.5 17.5s-6 15.167 -6 24.5c0 7.33301 2 13 6 17
s8.33301 6 13 6c7.33301 0 11.833 -1.66699 13.5 -5l5 -10.5c1.66699 -3.66699 4.16699 -7.33398 7.5 -11.001s10 -5.5 20 -5.5c6.66699 0 13.667 1.16699 21 3.5s14.333 5.66602 21 9.99902s12.167 9.83301 16.5 16.5s6.5 14.667 6.5 24
c0 17.333 -2.83301 33.833 -8.5 49.5s-13.167 29.334 -22.5 41.001s-20.666 21.167 -33.999 28.5s-27.666 11 -42.999 11c-20 0 -35.833 -5.16699 -47.5 -15.5s-20.5 -23.333 -26.5 -39s-9.83301 -33.167 -11.5 -52.5s-2.5 -38 -2.5 -56
c0 -92.667 0.333008 -184.834 1 -276.501s1 -183.834 1 -276.501c0 -14 -0.833008 -29.833 -2.5 -47.5s-4.83398 -34.5 -9.50098 -50.5s-11.834 -29.5 -21.501 -40.5s-22.834 -16.5 -39.501 -16.5c-14 0 -25.667 5.66699 -35 17s-16.666 25.333 -21.999 42
s-9.16602 34 -11.499 52s-4.5 33 -6.5 45l-43 325l-41 326c0 2 -0.333008 6.66699 -1 14s-1.83398 14.666 -3.50098 21.999s-3.5 13.833 -5.5 19.5s-4.66699 8.5 -8 8.5c-4.66699 0 -8.33398 -4 -11.001 -12s-4.5 -17.167 -5.5 -27.5s-1.33301 -20.333 -1 -30
s0.5 -16.834 0.5 -21.501c0 -90 -0.666992 -180 -2 -270s-5 -180 -11 -270c-2 -32.667 -7 -63.334 -15 -92.001s-19.167 -53.834 -33.5 -75.501s-32.666 -38.834 -54.999 -51.501s-49.5 -19 -81.5 -19c-10 0 -20.333 1.5 -31 4.5s-20.834 7.66699 -30.501 14
s-17.667 14.166 -24 23.499s-9.5 21 -9.5 35c0 18 6 33.5 18 46.5s26 19.5 42 19.5c5.33301 0 10 -2.16699 14 -6.5s6 -9.83301 6 -16.5c0 -8.66699 -2 -14.5 -6 -17.5s-8.33301 -5.16699 -13 -6.5s-9.16699 -3.16602 -13.5 -5.49902s-6.5 -6.83301 -6.5 -13.5
s2.16699 -12 6.5 -16s9.16602 -7.16699 14.499 -9.5s11.166 -3.83301 17.499 -4.5s11.5 -1 15.5 -1c26 0 47.833 5.33301 65.5 16s32.167 24.834 43.5 42.501s19.666 38.5 24.999 62.5s9 49 11 75c6 92 9.5 183.333 10.5 274s1.5 182 1.5 274c0 11.333 0.5 24.333 1.5 39
s3.5 28.167 7.5 40.5s9.83301 22.833 17.5 31.5s18.167 13 31.5 13c12 0 21.5 -3.33301 28.5 -10s12.5 -15 16.5 -25s6.83301 -20.833 8.5 -32.5s3.16699 -22.834 4.5 -33.501l42.5 -326l41.5 -326l3.5 -27.5c1.66699 -13 3.83398 -26.167 6.50098 -39.5s6 -25 10 -35
s9 -15 15 -15c8 0 14.167 3.5 18.5 10.5s7.66602 15.5 9.99902 25.5s3.66602 20.333 3.99902 31s0.5 19 0.5 25c0 94.667 -0.333008 188.5 -1 281.5s-1 186.833 -1 281.5c0 26.667 1.33301 52.667 4 78s8.5 48.333 17.5 69s22 37.167 39 49.5s39.5 18.5 67.5 18.5
c21.333 0 40.833 -4.66699 58.5 -14s33.334 -22 47.001 -38s24.334 -34.667 32.001 -56s11.5 -43.666 11.5 -66.999z" />
    <glyph glyph-name="O" unicode="O" horiz-adv-x="659" 
d="M625 452c0 -54.667 -6.8291 -109.67 -20.4961 -165.003s-34 -105.5 -61 -150.5s-60.667 -81.667 -101 -110s-86.833 -42.5 -139.5 -42.5c-55.333 0 -103.166 13.167 -143.499 39.5s-73.833 61.166 -100.5 104.499s-46.5 92.333 -59.5 147s-19.5 110.667 -19.5 168
c0 43.333 3.16699 85.5 9.5 126.5s16.666 79.833 30.999 116.5s33.166 70.5 56.499 101.5s51.666 57.5 84.999 79.5c2.66699 2.66699 6.33398 4 11.001 4c5.33301 0 10 -2.83301 14 -8.5s6 -11.5 6 -17.5c0 -7.33301 -3.66699 -13.333 -11 -18l-28 -23
c-9.33301 -7.33301 -18.333 -15.333 -27 -24c-20 -20.667 -36.667 -44.334 -50 -71.001s-24.166 -54.667 -32.499 -84s-14.333 -59.666 -18 -90.999s-5.5 -61.666 -5.5 -90.999c0 -50.667 5.5 -100.5 16.5 -149.5s28 -92.833 51 -131.5s52.167 -70.167 87.5 -94.5
s77.666 -36.5 126.999 -36.5c46.667 0 87.667 13.167 123 39.5s64.5 59.833 87.5 100.5s40.333 85.834 52 135.501s17.5 98.167 17.5 145.5c0 25.333 -2.16699 53.166 -6.5 83.499s-11 60.333 -20 90s-20.333 58.5 -34 86.5s-29.334 52.667 -47.001 74
s-37.667 38.5 -60 51.5s-46.833 19.5 -73.5 19.5c-25.333 0 -47.5 -5.5 -66.5 -16.5s-35.167 -25.5 -48.5 -43.5s-23.333 -39.167 -30 -63.5s-10 -50.166 -10 -77.499c0 -13.333 3.66699 -25.666 11 -36.999s17 -17 29 -17c8 0 14.5 3 19.5 9s9.16699 13.5 12.5 22.5
s5.66602 18.333 6.99902 28s2 17.834 2 24.501c0 7.33301 2 13 6 17s8.66699 6 14 6s10.166 -2 14.499 -6s6.5 -9.66699 6.5 -17c0 -14 -1.66699 -28.5 -5 -43.5s-8.33301 -29 -15 -42s-15.167 -23.833 -25.5 -32.5s-22.5 -13 -36.5 -13c-12 0 -22.833 3 -32.5 9
s-18.167 13.5 -25.5 22.5s-13 19.5 -17 31.5s-6 24.667 -6 38c0 33.333 4.5 65 13.5 95s22 56.5 39 79.5s37.5 41 61.5 54s51.333 19.5 82 19.5c46 0 86.667 -14.833 122 -44.5s65 -67.167 89 -112.5s42 -94.5 54 -147.5s18 -102.167 18 -147.5z" />
    <glyph glyph-name="P" unicode="P" horiz-adv-x="391" 
d="M592 659c0 -26.667 -3.3291 -52.8281 -9.99609 -78.4951s-16.667 -48.834 -30 -69.501s-29.666 -37.334 -48.999 -50.001s-42 -19 -68 -19c-9.33301 0 -18.666 1.66699 -27.999 5s-17.833 8.33301 -25.5 15s-14 14.834 -19 24.501s-7.5 20.167 -7.5 31.5
c0 6.66699 2 12.167 6 16.5s8.66699 6.5 14 6.5s9.16602 -1 11.499 -3s4 -4.33301 5 -7s1.66699 -5.83398 2 -9.50098s1.5 -7.5 3.5 -11.5c3.33301 -7.33301 8.66602 -12.833 15.999 -16.5s14.666 -5.5 21.999 -5.5c20 0 37.167 5.16699 51.5 15.5s26.333 23.833 36 40.5
s16.834 35.167 21.501 55.5s7 40.166 7 59.499c0 38.667 -8.66699 70.667 -26 96s-39 45 -65 59s-54.333 23.833 -85 29.5s-59.667 8.5 -87 8.5c-17.333 0 -34.833 -1.5 -52.5 -4.5s-35.167 -7.5 -52.5 -13.5c-18 -6 -36.5 -14.5 -55.5 -25.5s-36.5 -24.333 -52.5 -40
s-29 -33.667 -39 -54s-15 -42.5 -15 -66.5c0 -24.667 5.66699 -46.167 17 -64.5s28.666 -27.5 51.999 -27.5c11.333 0 21.666 4.5 30.999 13.5s17.5 20.167 24.5 33.5s12.5 27.166 16.5 41.499s6 26.833 6 37.5c0 6.66699 2 12.167 6 16.5s8.66699 6.5 14 6.5
s10.166 -2.16699 14.499 -6.5s6.5 -9.83301 6.5 -16.5c0 -17.333 -2.83301 -36.333 -8.5 -57s-13.834 -39.5 -24.501 -56.5s-23.334 -31.167 -38.001 -42.5s-30.667 -17 -48 -17s-32.833 3.83301 -46.5 11.5s-25.167 17.667 -34.5 30s-16.5 26.833 -21.5 43.5
s-7.5 34.667 -7.5 54c0 28 4.66699 53.5 14 76.5s22 43.667 38 62s34.5 34.666 55.5 48.999s42.833 26 65.5 35s45.667 15.833 69 20.5s45.333 7 66 7c33.333 0 67.833 -3.66699 103.5 -11s68.334 -20.166 98.001 -38.499s54.167 -42.833 73.5 -73.5s29 -69.334 29 -116.001
zM355.004 814.006c0 -6.66699 -2.16504 -12.0049 -6.49805 -16.0049s-9.16602 -6 -14.499 -6c-6 0 -11.167 -6.33301 -15.5 -19s-7.83301 -28.667 -10.5 -48s-4.83398 -40.666 -6.50098 -63.999s-2.83398 -45.833 -3.50098 -67.5s-1 -41.167 -1 -58.5v-38
c0 -28.667 0.333008 -57.334 1 -86.001s1 -57.667 1 -87c0 -39.333 -2.5 -79.166 -7.5 -119.499s-14.667 -76.666 -29 -108.999s-34.666 -58.666 -60.999 -78.999s-61.166 -30.5 -104.499 -30.5c-10 0 -20.5 1.5 -31.5 4.5s-21.333 7.5 -31 13.5s-17.5 13.667 -23.5 23
s-9 21 -9 35c0 18 5.83301 33.5 17.5 46.5s25.5 19.5 41.5 19.5c6 0 11 -2 15 -6s6 -9.66699 6 -17c0 -8 -2 -13.5 -6 -16.5s-8.5 -5.33301 -13.5 -7s-9.5 -3.66699 -13.5 -6s-6 -6.83301 -6 -13.5c0 -6 2 -11.167 6 -15.5s9 -7.66602 15 -9.99902s12 -3.83301 18 -4.5
s11 -1 15 -1c36 0 64.667 9.33301 86 28s37.5 42.334 48.5 71.001s18.167 60.167 21.5 94.5s5 67.5 5 99.5c0 36.667 -0.5 72.5 -1.5 107.5s-1.5 70.833 -1.5 107.5c0 10 0.166992 24.333 0.5 43s1.16602 39 2.49902 61s3.66602 44.5 6.99902 67.5s8 44 14 63
s13.5 34.333 22.5 46s19.833 17.5 32.5 17.5c5.33301 0 10.166 -2 14.499 -6s6.5 -9.66699 6.5 -17z" />
    <glyph glyph-name="Q" unicode="Q" horiz-adv-x="659" 
d="M625 449c0 -54.667 -6.8291 -109.34 -20.4961 -164.007s-34 -104.334 -61 -149.001s-60.667 -81 -101 -109s-86.833 -42 -139.5 -42c-55.333 0 -103.166 13 -143.499 39s-73.833 60.5 -100.5 103.5s-46.5 91.667 -59.5 146s-19.5 109.833 -19.5 166.5
c0 43.333 3.16699 85.333 9.5 126s16.666 79.167 30.999 115.5s33.166 69.833 56.499 100.5s51.666 57.334 84.999 80.001c2.66699 2 6.33398 3 11.001 3c5.33301 0 10 -2.66699 14 -8s6 -11 6 -17c0 -8 -3.66699 -14.333 -11 -19l-28 -22
c-9.33301 -7.33301 -18.333 -15.333 -27 -24c-20 -20.667 -36.667 -44.167 -50 -70.5s-24.166 -54.166 -32.499 -83.499s-14.333 -59.5 -18 -90.5s-5.5 -61.167 -5.5 -90.5c0 -50 5.5 -99.333 16.5 -148s28 -92.167 51 -130.5s52.167 -69.666 87.5 -93.999
s77.666 -36.5 126.999 -36.5c46.667 0 87.667 13 123 39s64.5 59.167 87.5 99.5s40.333 85.333 52 135s17.5 97.834 17.5 144.501c0 25.333 -2.16699 53 -6.5 83s-11 59.833 -20 89.5s-20.333 58.334 -34 86.001s-29.334 52.167 -47.001 73.5s-37.667 38.333 -60 51
s-46.833 19 -73.5 19c-25.333 0 -47.5 -5.33301 -66.5 -16s-35.167 -25 -48.5 -43s-23.333 -39.167 -30 -63.5s-10 -49.833 -10 -76.5c0 -13.333 3.66699 -25.666 11 -36.999s17 -17 29 -17c8 0 14.5 3 19.5 9s9.16699 13.5 12.5 22.5s5.66602 18.333 6.99902 28
s2 17.834 2 24.501s2 12.167 6 16.5s8.66699 6.5 14 6.5s10.166 -2.16699 14.499 -6.5s6.5 -9.83301 6.5 -16.5c0 -14 -1.66699 -28.5 -5 -43.5s-8.33301 -29 -15 -42s-15.167 -23.667 -25.5 -32s-22.5 -12.5 -36.5 -12.5c-12 0 -22.833 2.83301 -32.5 8.5
s-18.167 13.167 -25.5 22.5s-13 19.833 -17 31.5s-6 24.167 -6 37.5c0 33.333 4.5 64.833 13.5 94.5s22 55.834 39 78.501s37.5 40.667 61.5 54s51.333 20 82 20c46 0 86.667 -14.833 122 -44.5s65 -67 89 -112s42 -93.833 54 -146.5s18 -101.667 18 -147zM638.004 875.994
c0 -1.33301 -0.167969 -2.33203 -0.500977 -2.99902s-0.5 -1.33398 -0.5 -2.00098l-31 -1283c-2 -12 -8.33301 -18 -19 -18c-5.33301 0 -10.166 2.33301 -14.499 7s-6.5 10 -6.5 16v5l31 1284c3.33301 12 10 18 20 18c6 0 11 -2.5 15 -7.5s6 -10.5 6 -16.5z" />
    <glyph glyph-name="R" unicode="R" horiz-adv-x="882" 
d="M850 187c0 -27.333 -4.33301 -53.1777 -13 -77.5107s-20.5 -45.5 -35.5 -63.5s-33 -32.5 -54 -43.5s-43.5 -16.5 -67.5 -16.5c-20.667 0 -39.5 5.33301 -56.5 16s-31.167 24.5 -42.5 41.5s-20.166 36.333 -26.499 58s-9.5 43.5 -9.5 65.5v165
c0 18.667 -2.66699 36.667 -8 54s-13.666 32.333 -24.999 45c-13.333 -8 -28.333 -14.833 -45 -20.5s-32.667 -8.5 -48 -8.5c-6.66699 0 -14.5 1.66699 -23.5 5s-17.5 8 -25.5 14s-14.833 12.833 -20.5 20.5s-8.5 16.167 -8.5 25.5c0 8.66699 2.66699 16.834 8 24.501
s12 14.167 20 19.5s16.5 9.5 25.5 12.5s16.833 4.5 23.5 4.5c17.333 0 34.166 -3.16699 50.499 -9.5s31.5 -14.833 45.5 -25.5c10 8 18.667 18.333 26 31s13.166 26.5 17.499 41.5s7.66602 30.167 9.99902 45.5s3.5 30 3.5 44c0 23.333 -4 44.833 -12 64.5
s-18.833 37.334 -32.5 53.001s-29.167 29 -46.5 40s-35.333 19.833 -54 26.5c-17.333 6.66699 -35.333 11.5 -54 14.5s-37.334 4.5 -56.001 4.5c-30.667 0 -63.334 -5.16699 -98.001 -15.5s-66.667 -25.833 -96 -46.5s-53.5 -46.334 -72.5 -77.001s-28.5 -67 -28.5 -109
c0 -12 2.83301 -23.5 8.5 -34.5s12.667 -20.667 21 -29s17.833 -15.166 28.5 -20.499s21 -8 31 -8c12 0 22.667 3.66699 32 11s17 16.333 23 27s10.667 22.334 14 35.001s5 25.334 5 38.001c0 6.66699 2 12 6 16s8.66699 6 14 6s10.166 -2 14.499 -6s6.5 -9.33301 6.5 -16
c0 -18.667 -2.66699 -37.334 -8 -56.001s-12.833 -35.334 -22.5 -50.001s-21.667 -26.834 -36 -36.501s-30.5 -14.5 -48.5 -14.5c-15.333 0 -30.833 3.83301 -46.5 11.5s-29.667 17.834 -42 30.501s-22.333 27.334 -30 44.001s-11.5 34 -11.5 52
c0 48.667 10.5 91.334 31.5 128.001s48 67.334 81 92.001s69.333 43 109 55s77.834 18 114.501 18c32.667 0 66.334 -4.66699 101.001 -14s66.5 -24.166 95.5 -44.499s52.833 -46.166 71.5 -77.499s28 -68.666 28 -111.999c0 -36 -5.66699 -71.333 -17 -106
s-29 -63.667 -53 -87c15.333 -17.333 26.5 -37.333 33.5 -60s10.5 -46 10.5 -70v-165c0 -15.333 2 -31 6 -47s10 -30.667 18 -44s17.833 -24.166 29.5 -32.499s25.167 -12.5 40.5 -12.5c18.667 0 35.834 4.33301 51.501 13s29.334 20.167 41.001 34.5s20.667 31 27 50
s9.5 38.5 9.5 58.5c0 14.667 -4.33301 28.167 -13 40.5s-19.667 18.5 -33 18.5c-9.33301 0 -15.5 -2.66699 -18.5 -8s-5.33301 -11.166 -7 -17.499s-3.66699 -12.166 -6 -17.499s-7.5 -8 -15.5 -8c-5.33301 0 -10 2.16699 -14 6.5s-6 9.83301 -6 16.5
c0 21.333 6.66699 38.833 20 52.5s29 20.5 47 20.5c12 0 23.333 -2.83301 34 -8.5s20 -13.167 28 -22.5s14.167 -20.333 18.5 -33s6.5 -26 6.5 -40zM374 813.988c0 -6.66699 -2.16406 -12.001 -6.49707 -16.001s-9.16602 -6 -14.499 -6c-6 0 -11.333 -6.66699 -16 -20
s-8.33398 -30.5 -11.001 -51.5s-4.83398 -44 -6.50098 -69s-2.83398 -49.333 -3.50098 -73s-1 -44.834 -1 -63.501v-40c0 -24.667 0.333008 -49.5 1 -74.5s1 -49.833 1 -74.5c0 -39.333 -2.5 -79.333 -7.5 -120s-14.833 -77.334 -29.5 -110.001s-35.167 -59.167 -61.5 -79.5
s-61.166 -30.5 -104.499 -30.5c-10 0 -20.5 1.5 -31.5 4.5s-21.333 7.5 -31 13.5s-17.667 13.667 -24 23s-9.5 21 -9.5 35c0 18 6 33.5 18 46.5s26 19.5 42 19.5c6 0 11 -2 15 -6s6 -9.66699 6 -17c0 -8 -2 -13.5 -6 -16.5s-8.5 -5.33301 -13.5 -7s-9.66699 -3.66699 -14 -6
s-6.5 -6.83301 -6.5 -13.5c0 -6 2.16699 -11.167 6.5 -15.5s9.33301 -7.66602 15 -9.99902s11.667 -3.83301 18 -4.5s11.5 -1 15.5 -1c36 0 64.667 9.33301 86 28s37.5 42.667 48.5 72s18.167 61.333 21.5 96s5 67.667 5 99c0 32 -0.5 64.167 -1.5 96.5s-1.5 64.5 -1.5 96.5
c0 10.667 0.166992 25.834 0.5 45.501s1.33301 41.334 3 65.001s4 47.667 7 72s7.5 46.5 13.5 66.5s13.667 36.5 23 49.5s20.666 19.5 33.999 19.5c5.33301 0 10.166 -2 14.499 -6s6.5 -9.66699 6.5 -17zM482.003 463.987c-20.667 13.333 -41.332 19.999 -61.999 19.999
c-2 0 -4.83301 -0.333008 -8.5 -1s-7.33398 -2 -11.001 -4s-7 -4.16699 -10 -6.5s-4.5 -4.5 -4.5 -6.5c0 -2.66699 1.66699 -5.16699 5 -7.5s7.33301 -4.16602 12 -5.49902s9 -2.5 13 -3.5s7 -1.5 9 -1.5c8.66699 0 18.5 1.66699 29.5 5s20.167 7 27.5 11z" />
    <glyph glyph-name="S" unicode="S" horiz-adv-x="389" 
d="M535 779c0 -40.667 -7.16602 -77.5 -21.499 -110.5s-33.5 -62.167 -57.5 -87.5s-51.167 -46.5 -81.5 -63.5s-61.5 -29.167 -93.5 -36.5c0.666992 -26 1.66699 -51.833 3 -77.5s2 -51.5 2 -77.5c0 -40 -2.83301 -80.333 -8.5 -121s-16.334 -77.167 -32.001 -109.5
s-37 -58.833 -64 -79.5s-62.167 -31 -105.5 -31c-10 0 -20.5 1.5 -31.5 4.5s-21.333 7.66699 -31 14s-17.667 14.166 -24 23.499s-9.5 21 -9.5 35c0 18 6 33.5 18 46.5s26 19.5 42 19.5c6 0 11 -2.16699 15 -6.5s6 -9.83301 6 -16.5c0 -8.66699 -2 -14.5 -6 -17.5
s-8.5 -5.16699 -13.5 -6.5s-9.66699 -3.16602 -14 -5.49902s-6.5 -6.83301 -6.5 -13.5s2.16699 -12 6.5 -16s9.33301 -7.16699 15 -9.5s11.667 -3.83301 18 -4.5s11.5 -1 15.5 -1c36 0 65.167 9.33301 87.5 28s39.5 42.167 51.5 70.5s20 60 24 95s6 68.833 6 101.5
c0 25.333 -0.666992 50.333 -2 75l-4 73c-5.33301 -0.666992 -10.333 -1 -15 -1h-14c-26.667 0 -50.834 5.66699 -72.501 17s-40.334 27 -56.001 47s-27.667 43 -36 69s-12.5 54 -12.5 84c0 32 6.16699 60.833 18.5 86.5s28.5 47.834 48.5 66.501s42.667 33 68 43
s51 15 77 15c5.33301 0 10.166 -2.16699 14.499 -6.5s6.5 -9.83301 6.5 -16.5s-2.16699 -12.167 -6.5 -16.5s-9.16602 -6.5 -14.499 -6.5c-20.667 0 -41.167 -3.83301 -61.5 -11.5s-38.666 -18.667 -54.999 -33s-29.5 -31.833 -39.5 -52.5s-15 -43.334 -15 -68.001
c0 -22.667 3.16699 -44.334 9.5 -65.001s15.333 -39 27 -55s26 -28.5 43 -37.5s35.833 -13.5 56.5 -13.5h14c4.66699 0 9.33398 0.333008 14.001 1c0 24.667 0.666992 51.334 2 80.001s4.33301 57.167 9 85.5s11.334 55.5 20.001 81.5s20.167 49 34.5 69s32 36 53 48
s46.167 18 75.5 18c14 0 27.333 -3.5 40 -10.5s23.667 -16.167 33 -27.5s16.666 -24.333 21.999 -39s8 -30 8 -46zM493.001 779c0 8.66699 -1.5 17.6699 -4.5 27.0029s-7.33301 17.666 -13 24.999s-12.167 13.333 -19.5 18s-15.333 7 -24 7c-24 0 -44.5 -5.33301 -61.5 -16
s-31 -24.834 -42 -42.501s-19.833 -38 -26.5 -61s-11.5 -46.667 -14.5 -71s-5 -48.5 -6 -72.5s-1.5 -45.667 -1.5 -65c26.667 6.66699 52.667 17.167 78 31.5s48 32.166 68 53.499s36.167 45.833 48.5 73.5s18.5 58.5 18.5 92.5z" />
    <glyph glyph-name="T" unicode="T" horiz-adv-x="539" 
d="M507 187c0 -27.333 -4.66895 -53.1602 -14.002 -77.4932s-22 -45.833 -38 -64.5s-34.667 -33.334 -56 -44.001s-44 -16 -68 -16c-45.333 0 -85 9.16699 -119 27.5s-62.5 43.333 -85.5 75s-40.333 68.834 -52 111.501s-17.5 88.334 -17.5 137.001
c0 40.667 2.83301 83.167 8.5 127.5s14.667 87.666 27 129.999s27.833 82.5 46.5 120.5s41 71.667 67 101l-15 13c-6 5.33301 -12.5 10.333 -19.5 15s-14.667 8.66699 -23 12s-17.166 5 -26.499 5c-17.333 0 -35.666 -3.83301 -54.999 -11.5s-37 -17.834 -53 -30.501
s-29.333 -26.667 -40 -42s-16 -30.666 -16 -45.999c0 -8.66699 2 -17.167 6 -25.5s11 -13.166 21 -14.499c11.333 0 19.5 3.16699 24.5 9.5s9.16699 13.5 12.5 21.5s6.83301 15.167 10.5 21.5s10.167 9.5 19.5 9.5c6.66699 0 11.334 -1.83301 14.001 -5.5
s4 -7.83398 4 -12.501c-2 -10 -5.66699 -19.833 -11 -29.5s-12 -18.167 -20 -25.5s-17 -13.333 -27 -18s-21 -7 -33 -7c-22 1.33301 -38 9.16602 -48 23.499s-15 30.5 -15 48.5c0 21.333 6.33301 42.166 19 62.499s28.834 38.5 48.501 54.5s41.834 28.833 66.501 38.5
s49 14.5 73 14.5c14 0 26.333 -1.16699 37 -3.5s20.334 -5.66602 29.001 -9.99902s16.834 -9.5 24.501 -15.5l24.5 -20c19.333 16.667 40.5 29.5 63.5 38.5s46.833 13.5 71.5 13.5c10.667 0 21.667 -2 33 -6s21.666 -9.66699 30.999 -17s17 -16.333 23 -27s9 -22.667 9 -36
s-2.5 -25 -7.5 -35s-11.667 -18.5 -20 -25.5s-17.666 -12.333 -27.999 -16s-20.5 -5.5 -30.5 -5.5c-28 0 -53.333 5.16699 -76 15.5s-45 24.166 -67 41.499c-25.333 -26.667 -47 -58 -65 -94s-32.667 -74.167 -44 -114.5s-19.666 -81.5 -24.999 -123.5s-8 -82 -8 -120
c0 -41.333 4.66699 -80.5 14 -117.5s23.666 -69.333 42.999 -97s43.666 -49.667 72.999 -66s63.666 -24.5 102.999 -24.5c18.667 0 36.167 4.16699 52.5 12.5s30.666 19.666 42.999 33.999s22 30.833 29 49.5s10.5 38.667 10.5 60c0 14.667 -4.16699 28.167 -12.5 40.5
s-19.166 18.5 -32.499 18.5c-14 0 -23.333 -2.33301 -28 -7s-7.83398 -9.83398 -9.50098 -15.501s-3.33398 -10.834 -5.00098 -15.501s-6.83398 -7 -15.501 -7c-5.33301 0 -10 2.16699 -14 6.5s-6 10.166 -6 17.499c0 11.333 2.5 21.166 7.5 29.499s11.333 15.333 19 21
s16 9.83398 25 12.501s17.833 4 26.5 4c12.667 0 24.167 -3 34.5 -9s19.333 -13.833 27 -23.5s13.667 -20.834 18 -33.501s6.5 -25.667 6.5 -39zM427.998 813.006c0 6.66699 -2.00098 12.5 -6.00098 17.5s-8.83301 9.16699 -14.5 12.5s-11.667 6 -18 8s-11.833 3 -16.5 3
c-35.333 0 -68.666 -11.667 -99.999 -35c17.333 -13.333 34.833 -23.833 52.5 -31.5s36.834 -11.5 57.501 -11.5c9.33301 0 19.166 3.16699 29.499 9.5s15.5 15.5 15.5 27.5z" />
    <glyph glyph-name="U" unicode="U" horiz-adv-x="929" 
d="M897 187c0 -27.333 -4.33496 -53.167 -13.002 -77.5s-20.5 -45.5 -35.5 -63.5s-33 -32.5 -54 -43.5s-43.5 -16.5 -67.5 -16.5c-34.667 0 -65.834 11.167 -93.501 33.5s-48.167 51.833 -61.5 88.5c-16.667 -38 -39.334 -67.833 -68.001 -89.5s-62 -32.5 -100 -32.5
c-30 0 -57 7.5 -81 22.5s-44.333 34.667 -61 59s-29.5 52 -38.5 83s-13.5 61.833 -13.5 92.5v471c0 12.667 -1.33301 26.834 -4 42.501s-7 30.834 -13 45.501s-13.833 26.667 -23.5 36s-21.5 14 -35.5 14c-18.667 0 -35 -6.33301 -49 -19s-25.667 -28.167 -35 -46.5
s-16.5 -38.166 -21.5 -59.499s-7.5 -41 -7.5 -59c0 -12 1 -26.5 3 -43.5s5.66699 -33.5 11 -49.5s12.5 -29.5 21.5 -40.5s20.5 -16.5 34.5 -16.5c11.333 0 21.166 3.83301 29.499 11.5s15.166 17 20.499 28s9.33301 22.667 12 35s4 23.833 4 34.5c0 7.33301 2 13 6 17
s8.66699 6 14 6s10.166 -2 14.499 -6s6.5 -9.66699 6.5 -17c0 -17.333 -2.33301 -35.166 -7 -53.499s-11.5 -35 -20.5 -50s-20.167 -27.333 -33.5 -37s-28.666 -14.5 -45.999 -14.5c-20.667 0 -38.167 6.66699 -52.5 20s-25.833 29.666 -34.5 48.999
s-14.834 40.666 -18.501 63.999s-5.5 44.333 -5.5 63c0 25.333 3.33301 51.5 10 78.5s16.5 51.667 29.5 74s29.167 40.833 48.5 55.5s41.333 22 66 22c20.667 0 38.334 -6 53.001 -18s26.834 -26.833 36.501 -44.5s16.667 -37.334 21 -59.001s6.5 -42.5 6.5 -62.5v-471
c0 -24.667 3.5 -49.667 10.5 -75s17 -48 30 -68s29 -36.5 48 -49.5s40.5 -19.5 64.5 -19.5s45.5 5.66699 64.5 17s35.333 26.333 49 45s24 40 31 64s10.5 48.667 10.5 74v140v506c0 6.66699 2 12.167 6 16.5s8.66699 6.5 14 6.5s10.166 -2.16699 14.499 -6.5
s6.5 -9.83301 6.5 -16.5v-506v-184c0 -19.333 3.16699 -38.5 9.5 -57.5s15.166 -35.833 26.499 -50.5s24.833 -26.334 40.5 -35.001s32.5 -13 50.5 -13c18.667 0 35.834 4.33301 51.501 13s29.334 20.167 41.001 34.5s20.667 31 27 50s9.5 38.5 9.5 58.5
c0 14.667 -4.33301 28.334 -13 41.001s-19.667 19 -33 19c-9.33301 0 -15.666 -2.66699 -18.999 -8s-5.66602 -11.166 -6.99902 -17.499s-3.16602 -12 -5.49902 -17s-7.5 -7.5 -15.5 -7.5c-5.33301 0 -10 2 -14 6s-6 9.33301 -6 16c0 21.333 6.66699 38.833 20 52.5
s29 20.5 47 20.5c12.667 0 24.334 -2.83301 35.001 -8.5s19.834 -13.334 27.501 -23.001s13.667 -20.834 18 -33.501s6.5 -26 6.5 -40z" />
    <glyph glyph-name="V" unicode="V" horiz-adv-x="660" 
d="M709 812c0 -8.66699 -4.82812 -17.3311 -14.4951 -25.998s-20.667 -17 -33 -25s-24.833 -14.833 -37.5 -20.5l-28 -12.5c10 -46.667 16.5 -94.167 19.5 -142.5s4.5 -96.5 4.5 -144.5c0 -26.667 -0.833008 -56.5 -2.5 -89.5s-5.33398 -66.333 -11.001 -100
s-13.334 -66.5 -23.001 -98.5s-22.5 -60.333 -38.5 -85s-35.5 -44.667 -58.5 -60s-50.5 -23 -82.5 -23c-30 0 -57 7.66699 -81 23s-44.333 35.166 -61 59.499s-29.5 51.833 -38.5 82.5s-13.5 61.667 -13.5 93v471c0 12.667 -1.33301 26.834 -4 42.501s-7 30.667 -13 45
s-13.833 26.333 -23.5 36s-21.5 14.5 -35.5 14.5c-18.667 0 -35 -6.33301 -49 -19s-25.667 -28.334 -35 -47.001s-16.5 -38.667 -21.5 -60s-7.5 -40.666 -7.5 -57.999c0 -12 1.16699 -26.5 3.5 -43.5s6.16602 -33.5 11.499 -49.5s12.666 -29.5 21.999 -40.5
s21 -16.5 35 -16.5c11.333 0 21 3.66699 29 11s14.667 16.5 20 27.5s9.33301 22.833 12 35.5s4 24.334 4 35.001c0 6.66699 2.16699 12.167 6.5 16.5s9.16602 6.5 14.499 6.5s10 -2.16699 14 -6.5s6 -9.83301 6 -16.5c0 -17.333 -2.16699 -35.166 -6.5 -53.499
s-11 -35.166 -20 -50.499s-20.167 -27.666 -33.5 -36.999s-28.666 -14 -45.999 -14c-20.667 0 -38.334 6.66699 -53.001 20s-26.334 29.666 -35.001 48.999s-15 40.666 -19 63.999s-6 44.333 -6 63c0 25.333 3.33301 51.5 10 78.5s16.5 51.667 29.5 74
s29.167 40.666 48.5 54.999s41.333 21.5 66 21.5c20.667 0 38.334 -5.83301 53.001 -17.5s26.834 -26.5 36.501 -44.5s16.667 -37.833 21 -59.5s6.5 -42.167 6.5 -61.5v-471c0 -25.333 3.5 -50.5 10.5 -75.5s17 -47.5 30 -67.5s29 -36.5 48 -49.5s40.5 -19.5 64.5 -19.5
c26.667 0 49.5 7.16699 68.5 21.5s34.833 33.166 47.5 56.499s23 49.5 31 78.5s14 58.833 18 89.5s6.66699 60.334 8 89.001s2 53.667 2 75c0 47.333 -1.5 94.166 -4.5 140.499s-9.16699 92.166 -18.5 137.499c-6 -0.666992 -11.833 -1.16699 -17.5 -1.5
s-11.5 -0.5 -17.5 -0.5c-13.333 0 -27.833 2.16699 -43.5 6.5s-30.167 10.666 -43.5 18.999s-24.333 19.166 -33 32.499s-13 29.333 -13 48c0 12.667 2.83301 23.834 8.5 33.501s13 17.5 22 23.5s18.667 10.333 29 13s20.5 4 30.5 4c15.333 0 28.666 -3.83301 39.999 -11.5
s21.333 -17.5 30 -29.5s16 -25.5 22 -40.5s11 -29.167 15 -42.5c18.667 6 34.334 13.5 47.001 22.5s26.667 20.167 42 33.5c5.33301 4.66699 10 7 14 7c5.33301 0 10.166 -2.5 14.499 -7.5s6.5 -10.5 6.5 -16.5zM545.005 764.003l-9.50195 27.502
c-3.66699 10.333 -8.16699 19.833 -13.5 28.5s-11.666 16.167 -18.999 22.5s-15.666 9.5 -24.999 9.5c-4 0 -8.66699 -0.5 -14 -1.5s-10.666 -2.33301 -15.999 -4s-9.83301 -4.5 -13.5 -8.5s-5.5 -9 -5.5 -15c0 -10.667 3.5 -19.834 10.5 -27.501s15.333 -13.834 25 -18.501
s19.667 -8.16699 30 -10.5s19.166 -3.5 26.499 -3.5h12c4 0 8 0.333008 12 1z" />
    <glyph glyph-name="W" unicode="W" horiz-adv-x="1017" 
d="M1054 812c0 -8.66699 -4.83496 -17.3311 -14.502 -25.998s-20.667 -17 -33 -25s-24.833 -14.833 -37.5 -20.5l-28 -12.5c10 -46.667 16.5 -94.167 19.5 -142.5s4.5 -96.5 4.5 -144.5c0 -26.667 -1 -56.5 -3 -89.5s-5.66699 -66.333 -11 -100s-13 -66.5 -23 -98.5
s-23 -60.333 -39 -85s-35.5 -44.667 -58.5 -60s-50.5 -23 -82.5 -23c-40 0 -74.667 12 -104 36s-51.666 57 -66.999 99c-16 -41.333 -38.833 -74.166 -68.5 -98.499s-64.5 -36.5 -104.5 -36.5c-30 0 -57 7.66699 -81 23s-44.333 35.166 -61 59.499s-29.5 51.833 -38.5 82.5
s-13.5 61.667 -13.5 93v471c0 12.667 -1.33301 26.834 -4 42.501s-7 30.667 -13 45s-13.833 26.333 -23.5 36s-21.5 14.5 -35.5 14.5c-18.667 0 -35 -6.33301 -49 -19s-25.667 -28.334 -35 -47.001s-16.5 -38.667 -21.5 -60s-7.5 -40.666 -7.5 -57.999
c0 -11.333 1 -25.5 3 -42.5s5.5 -33.5 10.5 -49.5s12 -29.667 21 -41s20.5 -17 34.5 -17c11.333 0 21 3.66699 29 11s14.667 16.5 20 27.5s9.33301 22.833 12 35.5s4 24.334 4 35.001c0 6.66699 2.16699 12.167 6.5 16.5s9.16602 6.5 14.499 6.5s10 -2.16699 14 -6.5
s6 -9.83301 6 -16.5c0 -17.333 -2.16699 -35.166 -6.5 -53.499s-11 -35.166 -20 -50.499s-20.167 -27.666 -33.5 -36.999s-28.666 -14 -45.999 -14c-20.667 0 -38.167 6.66699 -52.5 20s-25.666 29.833 -33.999 49.5s-14.333 41 -18 64s-5.5 43.833 -5.5 62.5
c0 25.333 3.33301 51.5 10 78.5s16.5 51.667 29.5 74s29.167 40.666 48.5 54.999s41.333 21.5 66 21.5c20.667 0 38.334 -5.83301 53.001 -17.5s26.834 -26.5 36.501 -44.5s16.667 -37.833 21 -59.5s6.5 -42.167 6.5 -61.5v-471c0 -25.333 3.5 -50.5 10.5 -75.5
s17 -47.5 30 -67.5s29 -36.5 48 -49.5s40.5 -19.5 64.5 -19.5s45.167 5.16699 63.5 15.5s34 24 47 41s23.167 37 30.5 60s11.666 47.167 12.999 72.5c1.33301 22.667 1.83301 45.167 1.5 67.5s-0.5 45.166 -0.5 68.499v521c0 6.66699 2 12 6 16s8.66699 6 14 6
s10.166 -2 14.499 -6s6.5 -9.33301 6.5 -16v-506v-159c0 -24 3.66699 -47.167 11 -69.5s17.5 -41.666 30.5 -57.999s28.5 -29.333 46.5 -39s38 -14.5 60 -14.5c26.667 0 49.5 7.16699 68.5 21.5s35 33.166 48 56.499s23.333 49.5 31 78.5s13.667 58.833 18 89.5
s7.16602 60.334 8.49902 89.001s2 53.667 2 75c0 47.333 -1.66699 94.166 -5 140.499s-9.66602 92.166 -18.999 137.499c-5.33301 -0.666992 -11 -1.16699 -17 -1.5s-11.667 -0.5 -17 -0.5c-13.333 0 -27.833 2.16699 -43.5 6.5s-30.167 10.666 -43.5 18.999
s-24.333 19.166 -33 32.499s-13 29.333 -13 48c0 12.667 2.83301 23.834 8.5 33.501s12.834 17.5 21.501 23.5s18.167 10.333 28.5 13s20.5 4 30.5 4c15.333 0 28.666 -3.83301 39.999 -11.5s21.5 -17.334 30.5 -29.001s16.5 -24.834 22.5 -39.501s11 -29.334 15 -44.001
c18.667 6 34.334 13.5 47.001 22.5s26.667 20.167 42 33.5c5.33301 4.66699 10 7 14 7c5.33301 0 10.166 -2.5 14.499 -7.5s6.5 -10.5 6.5 -16.5zM888.998 764.003l-9.50098 27.502c-3.66699 10.333 -8.16699 19.833 -13.5 28.5s-11.666 16.167 -18.999 22.5
s-15.666 9.5 -24.999 9.5c-4 0 -8.66699 -0.5 -14 -1.5s-10.5 -2.33301 -15.5 -4s-9.33301 -4.5 -13 -8.5s-5.5 -9 -5.5 -15c0 -10.667 3.5 -19.834 10.5 -27.501s15.333 -13.834 25 -18.501s19.667 -8.16699 30 -10.5s19.166 -3.5 26.499 -3.5h11c4 0 8 0.333008 12 1z" />
    <glyph glyph-name="X" unicode="X" horiz-adv-x="799" 
d="M397 583c6.66699 28.667 14.6689 57.499 24.002 86.499s21 57.333 35 85s30.333 52 49 73s40 38 64 51s51.333 19.5 82 19.5c16.667 0 31.167 -4.66699 43.5 -14s22.333 -21 30 -35s13.167 -29 16.5 -45s5 -31 5 -45c0 -40.667 -10.333 -76.334 -31 -107.001
s-46.667 -57.334 -78 -80.001s-65.5 -42 -102.5 -58s-71.833 -29.667 -104.5 -41c-1.33301 -8.66699 -2.16602 -17.167 -2.49902 -25.5s-0.5 -16.5 -0.5 -24.5c0 -16 1.16699 -36.667 3.5 -62s6.16602 -52.5 11.499 -81.5s12.5 -58.167 21.5 -87.5s19.5 -55.833 31.5 -79.5
s26.333 -43 43 -58s35.334 -22.5 56.001 -22.5c21.333 0 40.833 4.33301 58.5 13s32.834 20.167 45.501 34.5s22.334 30.833 29.001 49.5s10 38.334 10 59.001c0 14 -4.66699 27.333 -14 40s-21.666 19 -36.999 19c-12 0 -19.833 -2.66699 -23.5 -8
s-6.33398 -11 -8.00098 -17s-3.83398 -11.667 -6.50098 -17s-8.66699 -8 -18 -8c-6 0 -11.167 2 -15.5 6s-6.5 9.66699 -6.5 17c0 21.333 8 38.833 24 52.5s34 20.5 54 20.5c14 0 27 -3 39 -9s22.333 -13.833 31 -23.5s15.5 -20.834 20.5 -33.501s7.5 -25.667 7.5 -39
c0 -26.667 -4.5 -52.167 -13.5 -76.5s-22 -45.833 -39 -64.5s-37.167 -33.5 -60.5 -44.5s-49 -16.5 -77 -16.5s-52.667 8 -74 24s-39.833 36.667 -55.5 62s-28.834 54 -39.501 86s-19.334 64.167 -26.001 96.5s-10.834 62 -12.501 89s-2.5 52.5 -2.5 76.5v29
c-3.33301 -24.667 -8 -51.667 -14 -81c-5.33301 -33.333 -13.166 -67.166 -23.499 -101.499s-23 -67.666 -38 -99.999s-32.5 -60.833 -52.5 -85.5s-43 -44.667 -69 -60s-55.333 -23 -88 -23c-17.333 0 -32.833 5.5 -46.5 16.5s-24.5 24.667 -32.5 41s-13.833 34 -17.5 53
s-5.5 36.5 -5.5 52.5c0 48 11 90 33 126s49.833 67.333 83.5 94s70.5 49.5 110.5 68.5s77.667 32.167 113 39.5c0.666992 7.33301 1.16699 14.5 1.5 21.5s0.5 13.833 0.5 20.5c0 14 -1.16699 31.667 -3.5 53s-6.16602 44.333 -11.499 69s-12.333 49.5 -21 74.5
s-19.334 47.667 -32.001 68s-27.334 36.833 -44.001 49.5s-35.334 19 -56.001 19c-21.333 0 -41 -3.66699 -59 -11s-33.333 -17.166 -46 -29.499s-22.334 -26.333 -29.001 -42s-10 -32.5 -10 -50.5c0 -12 4.66699 -23.333 14 -34s21.666 -16 36.999 -16
c12 0 19.833 2.33301 23.5 7s6.33398 9.5 8.00098 14.5s4 9.83301 7 14.5s9.16699 7 18.5 7c6 0 11.333 -1.83301 16 -5.5s7 -8.5 7 -14.5c0 -18 -8.33301 -32.833 -25 -44.5s-35 -17.5 -55 -17.5c-14.667 0 -27.834 2.5 -39.501 7.5s-21.834 11.667 -30.501 20
s-15.5 17.833 -20.5 28.5s-7.5 21.667 -7.5 33c0 22.667 4.5 44.5 13.5 65.5s22 39.333 39 55s37.333 28.167 61 37.5s49.5 14 77.5 14s52.833 -6.66699 74.5 -20s40.334 -30.833 56.001 -52.5s28.834 -46.167 39.501 -73.5s19.334 -54.833 26.001 -82.5s11.5 -54 14.5 -79
s4.5 -46.5 4.5 -64.5v-20c3.33301 17.333 7 41.333 11 72v0zM47.002 160.999c0 -7.33301 0.999023 -17.333 2.99902 -30s4.66699 -24.667 8 -36s8.5 -21.166 15.5 -29.499s15.5 -12.5 25.5 -12.5c25.333 0 48.333 6.5 69 19.5s39 30.333 55 52s30 46.167 42 73.5
s22.167 55.333 30.5 84s15.333 56.667 21 84s10.5 51.666 14.5 72.999c-28.667 -11.333 -59.167 -25 -91.5 -41s-62.666 -35.167 -90.999 -57.5s-52.333 -48.333 -72 -78s-29.5 -63.5 -29.5 -101.5v0zM699.001 758.999c0 6.66699 -0.669922 15.3291 -2.00293 25.9961
s-3.83301 20.834 -7.5 30.501s-8.66699 18 -15 25s-14.166 10.5 -23.499 10.5c-23.333 0 -44.666 -5.5 -63.999 -16.5s-36.5 -25.667 -51.5 -44s-28 -39.166 -39 -62.499s-20.5 -47.166 -28.5 -71.499s-14.667 -48.166 -20 -71.499s-9.66602 -44 -12.999 -62
c26 9.33301 54.333 20.833 85 34.5s59.167 30 85.5 49s48.5 41.167 66.5 66.5s27 54 27 86v0z" />
    <glyph glyph-name="Y" unicode="Y" horiz-adv-x="738" 
d="M760 177c0 -2 -0.666992 -4.33398 -2 -7.00098c-32.667 -92.667 -85.334 -166 -158.001 -220v-134c0 -44.667 -3.83301 -91.334 -11.5 -140.001s-20.167 -93.334 -37.5 -134.001s-39.833 -74.334 -67.5 -101.001s-61.5 -40 -101.5 -40c-20.667 0 -39.5 6.33301 -56.5 19
s-31.167 28.834 -42.5 48.501s-20.166 42.334 -26.499 68.001s-9.5 51.5 -9.5 77.5c0 36 5 68.333 15 97s23.333 54.334 40 77.001s35.667 43 57 61s43.666 34.333 66.999 49l69.5 42c23 13.333 44.167 27 63.5 41v95c-17.333 -30.667 -39.333 -54.5 -66 -71.5
s-56.334 -25.5 -89.001 -25.5c-30 0 -57 7.66699 -81 23s-44.333 35.333 -61 60s-29.5 52.667 -38.5 84s-13.5 62.333 -13.5 93v472c0 13.333 -1.33301 28 -4 44s-7 31.167 -13 45.5s-13.833 26.5 -23.5 36.5s-21.5 15 -35.5 15c-18.667 0 -35 -6.33301 -49 -19
s-25.667 -28.334 -35 -47.001s-16.5 -38.834 -21.5 -60.501s-7.5 -41.167 -7.5 -58.5c0 -12 1 -26.667 3 -44s5.66699 -34 11 -50s12.5 -29.667 21.5 -41s20.5 -17 34.5 -17c11.333 0 21 3.83301 29 11.5s14.667 17 20 28s9.33301 22.833 12 35.5s4 24.334 4 35.001
c0 6.66699 2.16699 12.334 6.5 17.001s9.16602 7 14.499 7s10 -2.33301 14 -7s6 -10.334 6 -17.001c0 -17.333 -2.16699 -35.166 -6.5 -53.499s-11 -35.166 -20 -50.499s-20.167 -27.666 -33.5 -36.999s-28.666 -14 -45.999 -14c-20.667 0 -38.167 6.66699 -52.5 20
s-25.833 30 -34.5 50s-14.834 41.333 -18.501 64s-5.5 43.667 -5.5 63c0 25.333 3.33301 51.333 10 78s16.5 51.334 29.5 74.001s29.167 41.334 48.5 56.001s41.333 22 66 22c20.667 0 38.334 -6 53.001 -18s26.834 -27.167 36.501 -45.5s16.667 -38.333 21 -60
s6.5 -42.5 6.5 -62.5v-472c0 -24.667 3.5 -49.834 10.5 -75.501s17 -48.667 30 -69s29 -37 48 -50s40.5 -19.5 64.5 -19.5s45.5 5.66699 64.5 17s35.333 26.5 49 45.5s24 40.667 31 65s10.5 49.166 10.5 74.499v140v510c0 6 2 11.167 6 15.5s8.66699 6.5 14 6.5
c6 0 11 -2.16699 15 -6.5s6 -9.83301 6 -16.5v-863c22.667 17.333 42 36.833 58 58.5s30.333 46.167 43 73.5c2 3.33301 4.16699 8.16602 6.5 14.499s5 12.5 8 18.5s6.33301 11.167 10 15.5s7.83398 6.5 12.501 6.5c5.33301 0 10.333 -2.33301 15 -7s7 -10 7 -16z
M559 -80.001c-23.333 -16 -50.6689 -33.0029 -82.002 -51.0029s-61 -38.5 -89 -61.5s-51.667 -50.167 -71 -81.5s-29 -68.666 -29 -111.999c0 -18 2.16699 -36.333 6.5 -55s10.5 -35.667 18.5 -51s17.833 -27.833 29.5 -37.5s24.834 -14.5 39.501 -14.5
c33.333 0 61.333 12.167 84 36.5s40.834 54.333 54.501 90s23.5 74.334 29.5 116.001s9 80.834 9 117.501v104z" />
    <glyph glyph-name="Z" unicode="Z" horiz-adv-x="645" 
d="M653 140c0 -2 -0.666016 -5.32715 -1.99902 -9.99414c-8 -20.667 -18.667 -39.834 -32 -57.501s-28.5 -33.167 -45.5 -46.5s-35.167 -23.666 -54.5 -30.999s-39 -11 -59 -11c-50 0 -98.167 7.66699 -144.5 23l-140.5 47c-11.333 -16.667 -26.166 -32.5 -44.499 -47.5
s-37.166 -22.5 -56.499 -22.5c-8.66699 0 -18.5 1.16699 -29.5 3.5s-21.167 6.33301 -30.5 12s-17.333 12.834 -24 21.501s-10 19.334 -10 32.001c0 13.333 3.16699 24.333 9.5 33s14.166 15.667 23.499 21s19.333 9.16602 30 11.499s20.667 3.5 30 3.5
c14.667 0 29 -1.5 43 -4.5s28 -6.5 42 -10.5c17.333 28.667 32.166 59 44.499 91s26.166 63 41.499 93l34 71l34 72c-11.333 4 -22 6 -32 6c-13.333 0 -25.5 -3.16699 -36.5 -9.5s-18.833 -9.5 -23.5 -9.5c-5.33301 0 -10 2 -14 6s-6 9 -6 15
c0 6.66699 3.33301 12.667 10 18s14.334 10.166 23.001 14.499s17.5 7.5 26.5 9.5s15.833 3 20.5 3c8.66699 0 17.167 -1 25.5 -3s16.5 -5 24.5 -9l39 90.5l38 91.5c9.33301 22 18.333 44.333 27 67s18 45 28 67c-33.333 7.33301 -66.333 15 -99 23l-99 25
c-10.667 2 -21 4.5 -31 7.5s-20.667 4.5 -32 4.5c-16 0 -33 -2.66699 -51 -8s-34.667 -13 -50 -23s-28 -23 -38 -39s-15 -34.667 -15 -56c0 -10.667 1.66699 -21.334 5 -32.001s8 -20.334 14 -29.001s13.167 -15.667 21.5 -21s17.5 -8 27.5 -8
c15.333 0 29.666 5.33301 42.999 16s20 25.667 20 45c0 6.66699 2 12 6 16s8.66699 6 14 6s10.166 -2 14.499 -6s6.5 -9.33301 6.5 -16c0 -16 -3 -30.5 -9 -43.5s-13.833 -24.167 -23.5 -33.5s-20.667 -16.5 -33 -21.5s-25.166 -7.5 -38.499 -7.5
c-16 0 -30.667 3.83301 -44 11.5s-24.833 17.667 -34.5 30s-17.167 26.666 -22.5 42.999s-8 33.166 -8 50.499c0 28 6.16699 52.833 18.5 74.5s28 39.667 47 54s40 25.166 63 32.499s45.167 11 66.5 11c30.667 0 60.667 -4.83301 90 -14.5s59 -18.167 89 -25.5
c17.333 -4.66699 34.333 -9 51 -13l51 -12c10.667 18 23.5 33 38.5 45s32.5 18 52.5 18c8 0 16.5 -1 25.5 -3s17.5 -5.5 25.5 -10.5s14.667 -11.333 20 -19s8 -16.834 8 -27.501s-2.66699 -19.667 -8 -27s-11.833 -13.5 -19.5 -18.5s-16.167 -8.66699 -25.5 -11
s-18 -3.5 -26 -3.5c-22.667 0 -45.667 2.33301 -69 7c-11.333 -23.333 -21.5 -47.166 -30.5 -71.499s-18.5 -48.5 -28.5 -72.5l-38 -91.5l-39 -89.5c10 -5.33301 20.5 -9.83301 31.5 -13.5s22.167 -5.5 33.5 -5.5c7.33301 0 14 1 20 3s12.667 3 20 3
c5.33301 0 10 -2.16699 14 -6.5s6 -9.5 6 -15.5c0 -5.33301 -2.5 -10.166 -7.5 -14.499s-10.667 -7.5 -17 -9.5s-12.833 -3.66699 -19.5 -5s-12 -2 -16 -2c-14.667 0 -28.834 2.83301 -42.501 8.5l-40.5 17.5l-34.5 -74.5l-35.5 -74.5
c-14.667 -28.667 -28.167 -57.834 -40.5 -87.501s-26.166 -58.834 -41.499 -87.501l128.5 -43c41.667 -13.333 86.167 -20 133.5 -20c26.667 0 51.834 8 75.501 24s43.167 36 58.5 60l10 18l10 18c2.66699 4 5.16699 7.16699 7.5 9.5s5.83301 3.5 10.5 3.5
c5.33301 0 10.166 -2.33301 14.499 -7s6.5 -10 6.5 -16zM610.001 835.006c0 4 -1.50098 7 -4.50098 9s-6.66699 3.33301 -11 4s-8.5 1.16699 -12.5 1.5s-7 0.5 -9 0.5c-9.33301 0 -17.666 -2.5 -24.999 -7.5s-14 -11.167 -20 -18.5c15.333 -2 30.333 -3 45 -3
c2 0 5 0.166992 9 0.5s8.16699 0.833008 12.5 1.5s8 2.16699 11 4.5s4.5 4.83301 4.5 7.5zM132 67.0059c-18 5.33301 -37.666 7.99902 -58.999 7.99902c-3.33301 0 -7.83301 -0.166992 -13.5 -0.5s-11.334 -1.16602 -17.001 -2.49902s-10.667 -3.5 -15 -6.5
s-6.5 -7.16699 -6.5 -12.5s2.16699 -9.83301 6.5 -13.5s9.5 -6 15.5 -7s12 -1.66699 18 -2s10.667 -0.5 14 -0.5c11.333 0 21.833 3.83301 31.5 11.5s18.167 16.167 25.5 25.5z" />
    <glyph glyph-name="bracketleft" unicode="[" horiz-adv-x="312" 
d="M326 -72c0 -5.33301 -2.16699 -10 -6.5 -14s-9.16602 -6 -14.499 -6h-141c-5.33301 0 -10 2 -14 6s-6 8.66699 -6 14v804c0 5.33301 2 10 6 14s8.66699 6 14 6h141c5.33301 0 10.166 -2 14.499 -6s6.5 -8.66699 6.5 -14s-2.16699 -10 -6.5 -14s-9.16602 -6 -14.499 -6
h-120v-764h120c5.33301 0 10.166 -2 14.499 -6s6.5 -8.66699 6.5 -14z" />
    <glyph glyph-name="backslash" unicode="\" horiz-adv-x="474" 
d="M350 8c0 -5.33301 -2.16797 -10.167 -6.50098 -14.5s-9.16602 -6.5 -14.499 -6.5c-10.667 0 -17 5 -19 15l-179 747c0 0.666992 -0.166992 1.33398 -0.5 2.00098s-0.5 1.33398 -0.5 2.00098c0 6 2 11 6 15s9 6 15 6c10.667 0 17 -5 19 -15l179 -747
c0 -0.666992 0.166992 -1.33398 0.5 -2.00098s0.5 -1.33398 0.5 -2.00098z" />
    <glyph glyph-name="bracketright" unicode="]" horiz-adv-x="312" 
d="M169 -72c0 -5.33301 -2.16699 -10 -6.5 -14s-9.16602 -6 -14.499 -6h-141c-5.33301 0 -10 2 -14 6s-6 8.66699 -6 14s2 10 6 14s8.66699 6 14 6h121v764h-121c-5.33301 0 -10 2 -14 6s-6 8.66699 -6 14s2 10 6 14s8.66699 6 14 6h141c5.33301 0 10.166 -2 14.499 -6
s6.5 -8.66699 6.5 -14v-804z" />
    <glyph glyph-name="asciicircum" unicode="^" horiz-adv-x="389" 
d="M370 469c0 -5.33301 -2.16699 -9.66406 -6.5 -12.9971s-9.16602 -5 -14.499 -5c-4.66699 0 -11.667 4.33301 -21 13s-18.833 18.167 -28.5 28.5s-18.167 20 -25.5 29s-12 13.833 -14 14.5c-2.66699 -4 -8.16699 -10.667 -16.5 -20s-17.5 -18.833 -27.5 -28.5
s-19.5 -18.167 -28.5 -25.5s-15.167 -11 -18.5 -11c-5.33301 0 -10 1.66699 -14 5s-6 7.66602 -6 12.999c0 6 4 12.667 12 20s14 12.666 18 15.999c8 7.33301 15.5 14.666 22.5 21.999s13.833 15 20.5 23c4 5.33301 9.5 11.833 16.5 19.5s14.167 11.5 21.5 11.5
c4 0 8.33301 -1.66699 13 -5c8.66699 -7.33301 16.167 -15.333 22.5 -24s13.166 -17 20.499 -25s15.333 -15.667 24 -23s16.667 -15.333 24 -24c4 -4 6 -7.66699 6 -11z" />
    <glyph glyph-name="underscore" unicode="_" horiz-adv-x="592" 
d="M567 -37c0 -5.33301 -2.16797 -10 -6.50098 -14s-9.16602 -6 -14.499 -6h-515c-5.33301 0 -10 2 -14 6s-6 8.66699 -6 14s1.83301 10.333 5.5 15s8.5 7 14.5 7h515c6 0 11 -2.33301 15 -7s6 -9.66699 6 -15z" />
    <glyph glyph-name="grave" unicode="`" horiz-adv-x="389" 
d="M308 467c0 -5.33301 -2.16797 -9.83203 -6.50098 -13.499s-9.16602 -5.5 -14.499 -5.5s-15.333 4.83301 -30 14.5s-29.667 20.834 -45 33.501s-29 25.167 -41 37.5s-18 21.166 -18 26.499s2 9.66602 6 12.999s8.66699 5 14 5c4.66699 0 10 -2.33301 16 -7l37.5 -36
c11.667 -11.333 25.167 -22 40.5 -32l16.5 -10c5.66699 -3.33301 11.167 -7 16.5 -11s8 -9 8 -15z" />
    <glyph glyph-name="a" unicode="a" horiz-adv-x="476" 
d="M497 155c0 -1.33301 -0.504883 -3.16602 -1.50488 -5.49902s-1.83301 -4.16602 -2.5 -5.49902c-4.66699 -8.66699 -9.16699 -17.5 -13.5 -26.5s-10.166 -19.167 -17.499 -30.5c-8 -12 -16.667 -24 -26 -36s-19.166 -22.833 -29.499 -32.5s-20.833 -17.334 -31.5 -23.001
s-21.334 -8.5 -32.001 -8.5c-20 0 -35.833 5.5 -47.5 16.5s-19.5 26.167 -23.5 45.5c-15.333 -19.333 -34.166 -34.5 -56.499 -45.5s-46.166 -16.5 -71.499 -16.5c-22.667 0 -44 4.5 -64 13.5s-37.5 21 -52.5 36s-26.667 32.667 -35 53s-12.5 41.833 -12.5 64.5
s4.16699 44.167 12.5 64.5s20 38.166 35 53.499s32.5 27.5 52.5 36.5s41.333 13.5 64 13.5c24 0 47 -5.16699 69 -15.5s40.667 -24.5 56 -42.5c0 4.66699 -0.333008 10.167 -1 16.5s-0.5 12.333 0.5 18s3 10.5 6 14.5s7.83301 6 14.5 6
c5.33301 0 10.166 -1.83301 14.499 -5.5s6.5 -8.16699 6.5 -13.5v-203v-22c0 -8 1 -15.667 3 -23s5.33301 -13.5 10 -18.5s11.334 -7.5 20.001 -7.5c10 0 20.5 4.83301 31.5 14.5s21.333 21 31 34s18.334 26.5 26.001 40.5s13.5 25 17.5 33
c2.66699 5.33301 5.83398 11 9.50098 17s9.16699 9 16.5 9c5.33301 0 10.333 -1.83301 15 -5.5s7 -8.16699 7 -13.5zM268.995 154c0 17.333 -3.16699 33.6689 -9.5 49.002s-15.166 29 -26.499 41s-24.666 21.5 -39.999 28.5s-31.666 10.5 -48.999 10.5
s-33.5 -3.5 -48.5 -10.5s-28 -16.5 -39 -28.5s-19.667 -25.667 -26 -41s-9.5 -31.666 -9.5 -48.999c0 -16.667 3.16699 -32.834 9.5 -48.501s15 -29.334 26 -41.001s24 -21 39 -28s31.167 -10.5 48.5 -10.5s33.666 3.5 48.999 10.5s28.666 16.333 39.999 28
s20.166 25.167 26.499 40.5s9.5 31.666 9.5 48.999z" />
    <glyph glyph-name="b" unicode="b" horiz-adv-x="346" 
d="M366 160c0 -2 -0.330078 -4.00195 -0.99707 -6.00195s-1.33398 -3.66699 -2.00098 -5c-8.66699 -22 -23.5 -38 -44.5 -48s-43.167 -13.667 -66.5 -11c-12 -28.667 -28.833 -53 -50.5 -73s-49.167 -30 -82.5 -30c-21.333 0 -40 4.33301 -56 13s-29.333 20.167 -40 34.5
s-18.834 31 -24.501 50s-9.5 39.833 -11.5 62.5c-4.66699 64.667 -8.83398 129.5 -12.501 194.5s-5.5 130.5 -5.5 196.5c0 13.333 0.833008 31.833 2.5 55.5s4.5 49 8.5 76s9 54.333 15 82s13.5 52.667 22.5 75s19.667 40.5 32 54.5s26.5 21 42.5 21c20 0 37.333 -8 52 -24
s26.334 -35.833 35.001 -59.5s15.167 -48.5 19.5 -74.5s6.5 -49 6.5 -69c0 -40 -6 -83 -18 -129s-27.167 -91.5 -45.5 -136.5s-37.833 -89 -58.5 -132l-57 -116.5c1.33301 -16 4 -32.333 8 -49s9.5 -31 16.5 -43s16 -22 27 -30s24.833 -12 41.5 -12
c23.333 0 42.666 7.83301 57.999 23.5s27.333 33.5 36 53.5c-19.333 12 -33.333 28.833 -42 50.5s-13 43.167 -13 64.5c0 10 1.16699 20.167 3.5 30.5s6 19.833 11 28.5s11.5 15.667 19.5 21s18 8 30 8c10.667 0 19.5 -2.66699 26.5 -8s12.667 -12.166 17 -20.499
s7.5 -17.333 9.5 -27s3 -18.834 3 -27.501c0 -31.333 -4 -62.666 -12 -93.999c15.333 0.666992 27.833 3.83398 37.5 9.50098s16.5 12.167 20.5 19.5c3.33301 6.66699 6.33301 11.667 9 15s7 5 13 5c5.33301 0 10 -1.83301 14 -5.5s6 -8.16699 6 -13.5zM165.003 674.998
c0 12.667 -1.16699 29.167 -3.5 49.5s-6.5 40.166 -12.5 59.499s-13.667 36 -23 50s-20.666 21 -33.999 21c-7.33301 0 -13.833 -3.83301 -19.5 -11.5s-10.834 -16.667 -15.501 -27s-8.5 -20.833 -11.5 -31.5s-5.5 -19 -7.5 -25c-18.667 -73.333 -28 -147.333 -28 -222
c0 -49.333 0.833008 -98.166 2.5 -146.499s4.16699 -97.166 7.5 -146.499l46.5 97c17 36 32.667 73 47 111s26.5 76.167 36.5 114.5s15 74.166 15 107.499zM237.003 223.998v10.998c0 4.66699 -0.5 9.33398 -1.5 14.001s-2.5 8.83398 -4.5 12.501s-5 5.5 -9 5.5
c-5.33301 0 -9.5 -1.83301 -12.5 -5.5s-5.33301 -8 -7 -13s-2.66699 -10.167 -3 -15.5s-0.5 -10 -0.5 -14c0 -13.333 2.16699 -26.5 6.5 -39.5s11.5 -24.167 21.5 -33.5c6.66699 24.667 10 50.667 10 78z" />
    <glyph glyph-name="c" unicode="c" horiz-adv-x="329" 
d="M350 155c0 -1.33301 -0.668945 -3.33105 -2.00195 -5.99805c-8.66699 -21.333 -19.5 -41.833 -32.5 -61.5s-28.167 -37 -45.5 -52s-36.5 -26.833 -57.5 -35.5s-43.833 -13 -68.5 -13c-22.667 0 -44 4.5 -64 13.5s-37.5 21 -52.5 36s-26.667 32.667 -35 53
s-12.5 41.833 -12.5 64.5s4.16699 44.167 12.5 64.5s20 38.166 35 53.499s32.5 27.5 52.5 36.5s41.333 13.5 64 13.5c4.66699 0 12.5 -1 23.5 -3s22 -5 33 -9s20.667 -8.5 29 -13.5s12.5 -10.5 12.5 -16.5c0 -5.33301 -2.16699 -9.83301 -6.5 -13.5
s-9.16602 -5.5 -14.499 -5.5c-6 0 -15.5 3.66699 -28.5 11s-29.167 11 -48.5 11c-17.333 0 -33.5 -3.5 -48.5 -10.5s-28 -16.333 -39 -28s-19.667 -25.334 -26 -41.001s-9.5 -32.167 -9.5 -49.5s3.16699 -33.666 9.5 -48.999s15 -28.833 26 -40.5s24 -21 39 -28
s31.167 -10.5 48.5 -10.5c34 0 62.167 8.83301 84.5 26.5s41.833 40.5 58.5 68.5l11.5 21c3.66699 6.66699 7.83398 13.667 12.501 21c2 3.33301 4.16699 6.16602 6.5 8.49902s5.83301 3.5 10.5 3.5c5.33301 0 10.333 -2 15 -6s7 -8.66699 7 -14z" />
    <glyph glyph-name="d" unicode="d" horiz-adv-x="478" 
d="M498 159c0 -4 -0.327148 -7 -0.994141 -9c-4 -8 -9 -17.333 -15 -28s-12.833 -21.834 -20.5 -33.501s-15.834 -23 -24.501 -34s-17.667 -21.167 -27 -30.5c-11.333 -11.333 -21.833 -20.333 -31.5 -27s-21.5 -10 -35.5 -10c-20 0 -35.5 6.33301 -46.5 19
s-18.5 28 -22.5 46c-15.333 -20 -34.5 -35.833 -57.5 -47.5s-47.167 -17.5 -72.5 -17.5c-23.333 0 -45 4.66699 -65 14s-37.333 21.833 -52 37.5s-26.167 33.834 -34.5 54.501s-12.5 42.334 -12.5 65.001s4.16699 44.167 12.5 64.5s19.833 38 34.5 53s32 27 52 36
s41.667 13.5 65 13.5c24 0 47 -5 69 -15s40.667 -24 56 -42l1 311c0 5.33301 2 10 6 14s8.66699 6 14 6s10.166 -2 14.499 -6s6.5 -8.66699 6.5 -14l-2 -470c0 -6 0.166992 -13.5 0.5 -22.5s1.66602 -18 3.99902 -27s5.83301 -16.667 10.5 -23s11 -9.5 19 -9.5
c10.667 0 19.167 2.66699 25.5 8s13.166 12 20.499 20c13.333 15.333 25.833 32.5 37.5 51.5s20.167 33.833 25.5 44.5c3.33301 5.33301 6.66602 11.166 9.99902 17.499s8.66602 9.5 15.999 9.5c5.33301 0 10 -1.83301 14 -5.5s6 -8.16699 6 -13.5zM269.006 158
c0 17.333 -3.16699 33.6641 -9.5 48.9971s-15.166 28.833 -26.499 40.5s-24.5 20.834 -39.5 27.501s-31.5 10 -49.5 10s-34.5 -3.5 -49.5 -10.5s-28 -16.167 -39 -27.5s-19.5 -24.666 -25.5 -39.999s-9 -31.666 -9 -48.999s3 -33.833 9 -49.5s14.5 -29.5 25.5 -41.5
s24 -21.667 39 -29s31.5 -11 49.5 -11s34.5 3.66699 49.5 11s28.167 17 39.5 29s20.166 25.833 26.499 41.5s9.5 32.167 9.5 49.5z" />
    <glyph glyph-name="e" unicode="e" horiz-adv-x="360" 
d="M382 155c0 -1.33301 -0.665039 -3.33301 -1.99805 -6c-21.333 -50 -52.166 -89.5 -92.499 -118.5s-88.166 -43.5 -143.499 -43.5c-22.667 0 -44 4.5 -64 13.5s-37.333 21.167 -52 36.5s-26.334 33 -35.001 53s-13 41.333 -13 64c0 24 4.16699 46.167 12.5 66.5
s20 38 35 53s32.667 26.833 53 35.5s42.5 13 66.5 13c13.333 0 27.666 -2.16699 42.999 -6.5s29.666 -10.666 42.999 -18.999s24.333 -18.5 33 -30.5s13 -25.667 13 -41c0 -18.667 -4.16699 -35 -12.5 -49s-19.166 -25.667 -32.499 -35s-28.333 -16.5 -45 -21.5
s-33.334 -7.5 -50.001 -7.5c-22 0 -42.167 2.33301 -60.5 7s-37.5 11.667 -57.5 21c2 -15.333 6.5 -30 13.5 -44s16 -26.167 27 -36.5s23.5 -18.5 37.5 -24.5s29 -9 45 -9c36 0 69.167 7.66699 99.5 23s55.166 38.666 74.499 69.999c2 3.33301 4.5 8 7.5 14
s6.33301 12 10 18s7.5 11.333 11.5 16s8.33301 7 13 7c5.33301 0 10.333 -1.83301 15 -5.5s7 -8.16699 7 -13.5zM238.002 225c0 9.33301 -3.33301 17.5 -10 24.5s-14.667 13 -24 18s-19.333 8.83301 -30 11.5s-19.667 4 -27 4c-30.667 0 -57.334 -9.16699 -80.001 -27.5
s-37.334 -42.5 -44.001 -72.5c20 -10.667 38.667 -18.5 56 -23.5s37.333 -7.5 60 -7.5c10.667 0 21.834 1.5 33.501 4.5s22.334 7.5 32.001 13.5s17.667 13.5 24 22.5s9.5 19.833 9.5 32.5z" />
    <glyph glyph-name="f" unicode="f" horiz-adv-x="235" 
d="M256 154c0 -2 -0.661133 -4.99707 -1.99414 -8.99707c-6 -13.333 -13.333 -26.833 -22 -40.5s-18.667 -26 -30 -37s-24 -19.833 -38 -26.5s-29 -10 -45 -10h-9c-2 0 -4.66699 0.333008 -8 1c18.667 -32.667 34.167 -65 46.5 -97s23.666 -64.833 33.999 -98.5
s18.5 -67.834 24.5 -102.501s9 -68.334 9 -101.001c0 -24 -1.83301 -49.5 -5.5 -76.5s-9.66699 -52 -18 -75s-19.833 -42 -34.5 -57s-33.334 -22.5 -56.001 -22.5c-20.667 0 -38.334 8 -53.001 24s-26.834 36.833 -36.501 62.5s-17.334 54.5 -23.001 86.5
s-10 64.167 -13 96.5s-4.83301 63 -5.5 92s-1 53.167 -1 72.5c0 72.667 2.33301 145 7 217c0 14.667 0.5 29.167 1.5 43.5s1.5 29.166 1.5 44.499v372c0 13.333 0.333008 32.166 1 56.499s2.16699 50.833 4.5 79.5s6 57.834 11 87.501s11.333 56.667 19 81
s17.167 44.166 28.5 59.499s25.333 23 42 23c21.333 0 40 -8.33301 56 -25s29 -37 39 -61s17.333 -49.333 22 -76s7 -50.334 7 -71.001c0 -45.333 -6.16699 -91.166 -18.5 -137.499s-28 -91.833 -47 -136.5s-39.5 -88.334 -61.5 -131.001l-61 -120l-1 -5l20 -21.5
c7.33301 -7.66699 15 -14.667 23 -21s16.667 -11.666 26 -15.999s19 -6.5 29 -6.5c13.333 0 24.666 3 33.999 9s17.833 13.5 25.5 22.5s14.334 18.833 20.001 29.5s11.5 20.667 17.5 30c4.66699 8 11 12 19 12c5.33301 0 10.166 -2.16699 14.499 -6.5
s6.5 -9.16602 6.5 -14.499zM168.006 667.003c0 13.333 -1.66797 30.668 -5.00098 52.001s-8.16602 41.666 -14.499 60.999s-14.666 36.166 -24.999 50.499s-22.833 21.5 -37.5 21.5c-10.667 0 -19.667 -7.16699 -27 -21.5s-13.333 -32.333 -18 -54s-8.33398 -46 -11.001 -73
s-4.5 -53 -5.5 -78s-1.66699 -47.667 -2 -68s-0.5 -35.166 -0.5 -44.499v-271l47.5 98c17 34.667 32.667 70.334 47 107.001s26.5 73.667 36.5 111s15 73.666 15 108.999zM173.005 -366.995c0 37.333 -4.66992 77 -14.0029 119s-21.166 83.667 -35.499 125
s-30.5 80.333 -48.5 117s-37.333 65.667 -58 87c-0.666992 -38.667 -1.66699 -80.667 -3 -126s-2 -91 -2 -137c0 -14 0.166992 -32.167 0.5 -54.5s1.5 -47 3.5 -74s4.66699 -54.333 8 -82s8.33301 -52.5 15 -74.5s15.167 -40.167 25.5 -54.5s22.833 -21.5 37.5 -21.5
c15.333 0 27.833 6.5 37.5 19.5s16.834 28.5 21.501 46.5s7.83398 37.167 9.50098 57.5s2.5 37.833 2.5 52.5z" />
    <glyph glyph-name="g" unicode="g" horiz-adv-x="464" 
d="M485 151c0 -3.33301 -0.996094 -6.66602 -2.99609 -9.99902c-10 -17.333 -21.5 -33.5 -34.5 -48.5s-27.167 -29.167 -42.5 -42.5s-31 -26 -47 -38s-32 -27 -48 -45v-295c0 -24 -1.33301 -52 -4 -84s-7.66699 -62.333 -15 -91s-18 -52.834 -32 -72.501
s-32 -29.5 -54 -29.5c-22.667 0 -41 7.83301 -55 23.5s-24.833 35.5 -32.5 59.5s-12.834 50.167 -15.501 78.5s-4 55.5 -4 81.5c0 36 5.5 71.167 16.5 105.5s24.833 67 41.5 98s35.167 59.833 55.5 86.5s39.5 50.334 57.5 71.001v38c-15.333 -18.667 -34 -33 -56 -43
s-45 -15 -69 -15c-23.333 0 -45 4.66699 -65 14s-37.333 21.666 -52 36.999s-26.167 33.5 -34.5 54.5s-12.5 42.833 -12.5 65.5c0 23.333 4.16699 45.333 12.5 66s19.833 38.834 34.5 54.501s32 28.167 52 37.5s41.667 14 65 14c24 0 47 -5.16699 69 -15.5
s40.667 -24.833 56 -43.5c0 4.66699 -0.166992 10.167 -0.5 16.5s-0.166016 12.333 0.500977 18s2.5 10.5 5.5 14.5s7.83301 6 14.5 6c5.33301 0 10.166 -1.83301 14.499 -5.5s6.5 -8.5 6.5 -14.5v-269c21.333 14 42.166 29.167 62.499 45.5s38.166 35.166 53.499 56.499
c3.33301 5.33301 6.66602 10.333 9.99902 15s6.66602 9.66699 9.99902 15c4.66699 6.66699 10.334 10 17.001 10c5.33301 0 10.333 -2 15 -6s7 -8.66699 7 -14zM269.004 150c0 17.333 -3.16699 34 -9.5 50s-15.166 30 -26.499 42s-24.5 21.667 -39.5 29s-31.5 11 -49.5 11
s-34.5 -3.66699 -49.5 -11s-28 -17 -39 -29s-19.5 -26 -25.5 -42s-9 -32.667 -9 -50s3 -33.833 9 -49.5s14.5 -29.5 25.5 -41.5s24 -21.667 39 -29s31.5 -11 49.5 -11s34.5 3.66699 49.5 11s28.167 17 39.5 29s20.166 25.833 26.499 41.5s9.5 32.167 9.5 49.5zM269.004 -80
c-14 -16.667 -28.5 -35.333 -43.5 -56s-29 -43.167 -42 -67.5s-23.667 -50 -32 -77s-12.5 -54.167 -12.5 -81.5c0 -16 0.5 -35 1.5 -57s3.66699 -42.333 8 -61s10.833 -34.5 19.5 -47.5s21 -19.5 37 -19.5c15.333 0 27.333 8.33301 36 25s15 37 19 61s6.5 48.333 7.5 73
s1.5 44.667 1.5 60v248z" />
    <glyph glyph-name="h" unicode="h" horiz-adv-x="388" 
d="M409 159c0 -0.666992 -0.666016 -2.32812 -1.99902 -4.99512c-5.33301 -14 -13.166 -30.5 -23.499 -49.5s-22.166 -37.167 -35.499 -54.5s-28 -32 -44 -44s-32.667 -18 -50 -18c-16 0 -28.667 4.16699 -38 12.5s-16.333 18.666 -21 30.999s-7.66699 25.833 -9 40.5
s-2 28 -2 40v106c0 16 -4.83301 31.167 -14.5 45.5s-24.167 21.5 -43.5 21.5c-10.667 0 -21.334 -6 -32.001 -18s-20.5 -26 -29.5 -42s-17.5 -32 -25.5 -48s-15 -28 -21 -36c1.33301 -22 2.83301 -44 4.5 -66s2.5 -44.333 2.5 -67c0 -6 -2 -11 -6 -15s-9 -6 -15 -6
c-10 0 -16 4 -18 12s-3 15.667 -3 23c0 16 -0.5 32.167 -1.5 48.5s-2.16699 32.5 -3.5 48.5c-2.66699 43.333 -4.16699 89.666 -4.5 138.999s-0.5 100.666 -0.5 153.999c0 58 1.33301 115.667 4 173s11 114 25 170c3.33301 12 7.66602 26.333 12.999 43
s12.166 32.334 20.499 47.001s17.833 27.167 28.5 37.5s23 15.5 37 15.5c23.333 0 43.333 -8.16699 60 -24.5s30.167 -36.333 40.5 -60s18 -48.834 23 -75.501s7.5 -51 7.5 -73c0 -28 -2.66699 -55.833 -8 -83.5s-12.5 -54.834 -21.5 -81.501s-19.333 -52.834 -31 -78.501
s-28.5 -57.834 -50.5 -96.501h5c15.333 0.666992 29.166 -1.83301 41.499 -7.5s22.833 -13.5 31.5 -23.5s15.167 -21.667 19.5 -35s6.5 -27 6.5 -41v-106v-22c0 -9.33301 0.833008 -18.666 2.5 -27.999s4.5 -17.333 8.5 -24s10 -10 18 -10c14 0 26.667 5.5 38 16.5
s21.833 24 31.5 39s18.334 30.333 26.001 46s14.5 28.5 20.5 38.5c4 7.33301 9.66699 11 17 11c5.33301 0 10.333 -2 15 -6s7 -8.66699 7 -14zM189.001 665.006c0 14.667 -1.00293 29.8311 -3.00293 45.498s-5.33301 31.334 -10 47.001s-10.667 30.167 -18 43.5
s-16.333 24.333 -27 33c-4.66699 4 -9.5 7.33301 -14.5 10s-10.167 4 -15.5 4c-7.33301 0 -14.166 -4.33301 -20.499 -13s-11.833 -18.834 -16.5 -30.501s-8.83398 -23.667 -12.501 -36s-6.16699 -21.833 -7.5 -28.5c-14 -53.333 -22 -107.833 -24 -163.5
s-3 -111.834 -3 -168.501c0 -63.333 1 -126.666 3 -189.999c10.667 28.667 27.334 62 50.001 100s42.334 75.833 59.001 113.5s30.834 75.834 42.501 114.501s17.5 78.334 17.5 119.001z" />
    <glyph glyph-name="i" unicode="i" horiz-adv-x="253" 
d="M85 425c0 -8.66699 -3.16699 -16 -9.5 -22s-13.833 -9 -22.5 -9s-15.667 3 -21 9s-8 13.333 -8 22s2.66699 16 8 22s12.333 9 21 9s16.167 -3 22.5 -9s9.5 -13.333 9.5 -22zM274 155c0 -3.33301 -1.33105 -7.5 -3.99805 -12.5s-5.66699 -10.333 -9 -16
s-6.66602 -11 -9.99902 -16s-5.66602 -8.83301 -6.99902 -11.5c-2 -3.33301 -4 -7 -6 -11s-4.33301 -7.66699 -7 -11c-6.66699 -10.667 -14.5 -21.5 -23.5 -32.5s-18.833 -20.667 -29.5 -29s-22.167 -15.166 -34.5 -20.499s-25.5 -8 -39.5 -8
c-16.667 0 -29.834 4.33301 -39.501 13s-17 19.167 -22 31.5s-8.33301 25.666 -10 39.999s-2.5 27.5 -2.5 39.5v50v16c-0.666992 -1.33301 -1.33398 -4 -2.00098 -8s-1.33398 -6.66699 -2.00098 -8c-4 -7.33301 -8.33301 -13.666 -13 -18.999s-9 -8 -13 -8
c-5.33301 0 -10 2 -14 6s-6 8.66699 -6 14c0 6 2.66699 14.167 8 24.5s9.33301 18.5 12 24.5c5.33301 12 9.66602 24.333 12.999 37l10 38c0.666992 3.33301 1.66699 7.5 3 12.5s3 9.83301 5 14.5s4.66699 8.5 8 11.5s7.33301 4.5 12 4.5c7.33301 0 12.5 -2.66699 15.5 -8
s4.5 -10 4.5 -14v-188v-24c0 -9.33301 0.833008 -18.5 2.5 -27.5s4.83398 -16.833 9.50098 -23.5s11.667 -10 21 -10c18.667 0 35.667 7.33301 51 22s28.666 31 39.999 49l15.5 24.5c5 7.66699 9.5 15.167 13.5 22.5c3.33301 5.33301 6.83301 11.666 10.5 18.999
s9.5 11 17.5 11c4.66699 0 9.5 -1.5 14.5 -4.5s7.5 -7.83301 7.5 -14.5z" />
    <glyph glyph-name="j" unicode="j" horiz-adv-x="237" 
d="M85 425c0 -8.66699 -3.16699 -16 -9.5 -22s-13.833 -9 -22.5 -9s-15.667 3 -21 9s-8 13.333 -8 22s2.66699 16 8 22s12.333 9 21 9s16.167 -3 22.5 -9s9.5 -13.333 9.5 -22zM258 152c0 -3.33301 -1.33105 -6.99902 -3.99805 -10.999c-22 -36 -49.667 -69.5 -83 -100.5
l-100 -90.5v-264c0 -22.667 -1.66699 -50.167 -5 -82.5s-9 -63.5 -17 -93.5s-18.667 -55.833 -32 -77.5s-30 -32.5 -50 -32.5s-37.333 7.83301 -52 23.5s-26.667 35.5 -36 59.5s-16.333 50 -21 78s-7 54.333 -7 79c0 38.667 5.83301 74.167 17.5 106.5
s26.334 62.5 44.001 90.5s37 53.667 58 77l59.5 66v178l-1 13c-0.666992 -1.33301 -1 -3.33301 -1 -6c0 -2 -0.333008 -3.66699 -1 -5c-2.66699 -6.66699 -6 -13 -10 -19s-9.66699 -9 -17 -9c-5.33301 0 -10 2 -14 6s-6 8.66699 -6 14c0 4 0.333008 7 1 9l19.5 46
c6.33301 15.333 12.166 31.333 17.499 48c2.66699 8.66699 4.66699 17.334 6 26.001s3.66602 17 6.99902 25c3.33301 10.667 10 16 20 16c6 0 10.833 -2.33301 14.5 -7s5.5 -9.66699 5.5 -15v-293c23.333 16.667 45.333 35.167 66 55.5s39.667 41.833 57 64.5
c4.66699 6 9 12.167 13 18.5s8.33301 12.166 13 17.499c2.66699 3.33301 5.16699 5.66602 7.5 6.99902s5.5 2 9.5 2c5.33301 0 10.166 -2 14.499 -6s6.5 -8.66699 6.5 -14zM30.002 -94.999l-45.501 -51.499c-16.333 -18.333 -31.166 -38.5 -44.499 -60.5
s-24.5 -45.5 -33.5 -70.5s-13.5 -52.5 -13.5 -82.5c0 -15.333 1.33301 -33.333 4 -54s7 -40.334 13 -59.001s13.667 -34.667 23 -48s20.666 -20 33.999 -20c12.667 0 23.167 9.33301 31.5 28s14.833 40.5 19.5 65.5s7.83398 50 9.50098 75s2.5 44.5 2.5 58.5v219z" />
    <glyph glyph-name="k" unicode="k" horiz-adv-x="390" 
d="M411 158c0 -3.33301 -1.00586 -6.66406 -3.00586 -9.99707c-7.33301 -14.667 -16.166 -31.334 -26.499 -50.001s-22 -36.334 -35 -53.001s-27.5 -30.5 -43.5 -41.5s-33.667 -16.5 -53 -16.5c-14.667 0 -26.5 4.5 -35.5 13.5s-15.833 20.167 -20.5 33.5
s-7.83398 27.333 -9.50098 42s-2.5 27.334 -2.5 38.001c0 12.667 -2.66699 23 -8 31c-18 -10 -37.333 -15 -58 -15c-13.333 0 -25.833 3.16699 -37.5 9.5s-17.5 17.166 -17.5 32.499s6.33301 26.166 19 32.499s25.667 9.5 39 9.5c10 0 19.667 -1.5 29 -4.5
s18.333 -7.16699 27 -12.5c8 10 12 22 12 36c0 17.333 -6 30 -18 38s-26.333 12 -43 12c-12 0 -23.333 -5.83301 -34 -17.5s-20.5 -25.5 -29.5 -41.5s-17.333 -32 -25 -48s-14.167 -28.333 -19.5 -37c2 -44 3 -88 3 -132c0 -6 -2.16699 -10.833 -6.5 -14.5
s-9.16602 -5.5 -14.499 -5.5s-10 1.83301 -14 5.5s-6 8.5 -6 14.5c0 76.667 -2 157.334 -6 242.001s-6 174 -6 268c0 14 1 33.333 3 58s4.66699 51.5 8 80.5s8.16602 58 14.499 87s14.333 55.333 24 79s20.834 43.167 33.501 58.5s27.334 23 44.001 23
c22 0 40.833 -8.83301 56.5 -26.5s28.834 -39 39.501 -64s18.667 -51.333 24 -79s8 -51.5 8 -71.5c0 -23.333 -3.16699 -49.333 -9.5 -78s-14.666 -57.834 -24.999 -87.501s-21.5 -58 -33.5 -85s-26.667 -57.5 -44 -91.5c2 2 4 3 6 3h9c28 0 52 -7.83301 72 -23.5
s30 -37.834 30 -66.501c0 -23.333 -8 -44 -24 -62c8 -11.333 13 -22.333 15 -33s3 -22.667 3 -36c0 -4.66699 0.166992 -11.167 0.5 -19.5s1.33301 -16.666 3 -24.999s4.5 -15.5 8.5 -21.5s9.33301 -9 16 -9c12 0 23.167 3.66699 33.5 11s19.833 16.5 28.5 27.5
s16.334 22.5 23.001 34.5s12.334 22.667 17.001 32c3.33301 6 6.5 11.333 9.5 16s6.16699 10.667 9.5 18c4.66699 8 10.667 12 18 12c5.33301 0 10.333 -2 15 -6s7 -8.66699 7 -14zM178.994 662.002c0 12.667 -1.66699 29.6689 -5 51.002s-8.33301 42.5 -15 63.5
s-15.334 39.167 -26.001 54.5s-23.334 23 -38.001 23c-7.33301 0 -14.166 -4.16699 -20.499 -12.5s-11.666 -18 -15.999 -29s-8.33301 -22.5 -12 -34.5s-6.16699 -21.333 -7.5 -28c-10 -37.333 -17 -75.5 -21 -114.5s-6 -78.5 -6 -118.5
c0 -48.667 0.666992 -96.834 2 -144.501s3 -95.834 5 -144.501l45.5 90.5c20.333 39.667 38.833 79.667 55.5 120s30.667 80 42 119s17 73.833 17 104.5zM145.994 172.004c-8 4.66699 -16.668 7 -26.001 7c-1.33301 0 -4.66602 -0.666992 -9.99902 -2s-8 -3 -8 -5
c0 -2.66699 2.33301 -4.16699 7 -4.5s7.66699 -0.5 9 -0.5c4 0 8.66699 0.5 14 1.5s10 2.16699 14 3.5z" />
    <glyph glyph-name="l" unicode="l" horiz-adv-x="265" 
d="M285 159c0 -4 -0.666016 -7.33398 -1.99902 -10.001c-5.33301 -10.667 -11.666 -22.167 -18.999 -34.5s-15.666 -25.166 -24.999 -38.499c-8 -11.333 -16.333 -22.333 -25 -33s-18.167 -20.167 -28.5 -28.5s-21.166 -15 -32.499 -20s-23.666 -7.5 -36.999 -7.5
c-24 0 -44.5 5.5 -61.5 16.5s-30.833 25 -41.5 42s-18.667 35.667 -24 56s-8.33301 39.833 -9 58.5c1.33301 20 1.16602 45.667 -0.500977 77s-3.33398 64.666 -5.00098 99.999s-3.16699 71.333 -4.5 108s-2 71.334 -2 104.001c0 12.667 0.833008 30.5 2.5 53.5
s4.33398 47.333 8.00098 73s8.66699 52 15 79s14.166 51.333 23.499 73s20.166 39.334 32.499 53.001s26.5 20.5 42.5 20.5c24 0 44.167 -8.66699 60.5 -26s29.5 -38.166 39.5 -62.499s17.167 -49.833 21.5 -76.5s6.5 -49.667 6.5 -69c0 -30.667 -4.66699 -65 -14 -103
s-21.166 -75.833 -35.499 -113.5s-29.5 -74.167 -45.5 -109.5s-30.667 -66.333 -44 -93l-26 -50.5c-8.66699 -16.333 -20 -31.5 -34 -45.5c1.33301 -14 4.16602 -28.5 8.49902 -43.5s10.333 -28.5 18 -40.5s17.167 -21.833 28.5 -29.5s24.666 -11.5 39.999 -11.5
c11.333 0 21.833 2.66699 31.5 8s18.5 12.166 26.5 20.499s15.5 17.666 22.5 27.999s13.5 20.5 19.5 30.5l25.5 45.5c7.66699 13 15.167 19.5 22.5 19.5c5.33301 0 10.166 -1.83301 14.499 -5.5s6.5 -8.5 6.5 -14.5zM177.001 666.999
c0 26 -2.33008 50.0039 -6.99707 72.0039c-2 11.333 -5.5 23.666 -10.5 36.999s-10.833 25.666 -17.5 36.999s-14.167 20.833 -22.5 28.5s-17.5 11.5 -27.5 11.5c-7.33301 0 -14 -3.83301 -20 -11.5s-11.333 -17 -16 -28s-8.5 -22 -11.5 -33s-5.5 -19.833 -7.5 -26.5
c-9.33301 -33.333 -16 -66.833 -20 -100.5s-6 -67.5 -6 -101.5c0 -26.667 0.5 -55 1.5 -85s2.16699 -59.5 3.5 -88.5s2.66602 -56.5 3.99902 -82.5s2.33301 -47.667 3 -65c15.333 28.667 32.166 62.167 50.499 100.5s35.166 77.666 50.499 117.999s28 79.666 38 117.999
s15 71.5 15 99.5z" />
    <glyph glyph-name="m" unicode="m" horiz-adv-x="684" 
d="M706 155c0 -1.33301 -0.669922 -3.33203 -2.00293 -5.99902c-3.33301 -9.33301 -9.83301 -21.833 -19.5 -37.5s-20.834 -31.834 -33.501 -48.501c-15.333 -20 -31.166 -37.667 -47.499 -53s-31.833 -23 -46.5 -23c-18 0 -33 3.5 -45 10.5s-21.333 16.333 -28 28
s-11.334 25 -14.001 40s-4 30.167 -4 45.5v114c0 19.333 -6.83301 33.5 -20.5 42.5s-29.167 13.5 -46.5 13.5c-18.667 0 -34 -7.5 -46 -22.5s-18 -31.5 -18 -49.5v-202c0 -5.33301 -2.16699 -10 -6.5 -14s-9.16602 -6 -14.499 -6s-10 2 -14 6s-6 8.66699 -6 14v202
c0 22 -4.33301 39.5 -13 52.5s-25 19.5 -49 19.5c-7.33301 0 -15.166 -1.33301 -23.499 -4s-16 -6.33398 -23 -11.001s-12.833 -10.5 -17.5 -17.5s-7 -14.833 -7 -23.5v-218c0 -5.33301 -2.16699 -10 -6.5 -14s-9.16602 -6 -14.499 -6s-10 2 -14 6s-6 8.66699 -6 14v221
c0 4 -0.166992 9.16699 -0.5 15.5s-1.16602 12.166 -2.49902 17.499s-3.66602 10 -6.99902 14s-8 6 -14 6c-12 0 -22 -7.66699 -30 -23s-15.333 -32.166 -22 -50.499s-13.334 -35.166 -20.001 -50.499s-14.667 -23 -24 -23c-5.33301 0 -10 2 -14 6s-6 8.66699 -6 14
c0 2.66699 1.33301 7 4 13l9 21c5.33301 12 10.333 24.667 15 38s8.33398 23.333 11.001 30c6 15.333 15.667 29.833 29 43.5s29.333 20.5 48 20.5c11.333 0 21.833 -2.5 31.5 -7.5s17.167 -12.833 22.5 -23.5c11.333 10 24 17.667 38 23s28.667 8 44 8
c17.333 0 33.666 -3 48.999 -9s27.666 -16.667 36.999 -32c10 12.667 22 22.667 36 30s29 11 45 11c14 0 27.667 -2.16699 41 -6.5s25 -10.5 35 -18.5s18 -17.833 24 -29.5s9 -25.167 9 -40.5v-114c0 -8.66699 0.333008 -18 1 -28s2.5 -19.333 5.5 -28
s7.83301 -15.667 14.5 -21s16 -8 28 -8c7.33301 0 16.333 5.33301 27 16s21.334 23.5 32.001 38.5s20.667 30.333 30 46s16.333 28.167 21 37.5c4 6.66699 9.66699 10 17 10c5.33301 0 10.333 -1.83301 15 -5.5s7 -8.16699 7 -13.5z" />
    <glyph glyph-name="n" unicode="n" horiz-adv-x="506" 
d="M526 155c0 -1.33301 -1.00586 -4.5 -3.00586 -9.5s-3.66699 -8.5 -5 -10.5c-5.33301 -10 -13.333 -23.333 -24 -40s-22.334 -33 -35.001 -49s-26 -29.833 -40 -41.5s-27.333 -17.5 -40 -17.5c-18 0 -33 3.5 -45 10.5s-21.5 16.333 -28.5 28s-11.833 25 -14.5 40
s-4 30.167 -4 45.5v114c0 19.333 -6.66699 33.833 -20 43.5s-28.666 14.5 -45.999 14.5c-9.33301 0 -18 -2.16699 -26 -6.5s-14.833 -10 -20.5 -17s-10.167 -15 -13.5 -24s-5 -17.833 -5 -26.5v-202c0 -5.33301 -2 -10 -6 -14s-8.66699 -6 -14 -6s-10.166 2 -14.499 6
s-6.5 8.66699 -6.5 14v221c0 4 -0.166992 9 -0.5 15s-1.16602 12 -2.49902 18s-3.66602 11.167 -6.99902 15.5s-7.66602 6.5 -12.999 6.5c-9.33301 0 -17.166 -3.5 -23.499 -10.5s-11.5 -15.333 -15.5 -25s-7.33301 -19.5 -10 -29.5s-5.33398 -18.333 -8.00098 -25
c-2 -4 -4.16699 -9.5 -6.5 -16.5s-5 -14 -8 -21s-6.5 -13 -10.5 -18s-8.66699 -7.5 -14 -7.5s-10.166 2 -14.499 6s-6.5 8.66699 -6.5 14c0 2 0.833008 5.5 2.5 10.5s3.83398 10.333 6.50098 16s5 11.167 7 16.5s3.66699 9 5 11c3.33301 8 6.16602 16.333 8.49902 25
s5.16602 17 8.49902 25c6 16.667 15.833 32.167 29.5 46.5s30.167 21.5 49.5 21.5c12 0 22.333 -3.33301 31 -10s15.667 -15.334 21 -26.001c9.33301 11.333 20.833 20.166 34.5 26.499s27.834 9.5 42.501 9.5c14 0 27.5 -2.16699 40.5 -6.5s24.5 -10.666 34.5 -18.999
s17.833 -18.5 23.5 -30.5s8.5 -25.667 8.5 -41v-114c0 -8.66699 0.333008 -18 1 -28s2.83398 -19.333 6.50098 -28s8.83398 -15.667 15.501 -21s16 -8 28 -8c7.33301 0 16 5.16699 26 15.5s19.833 22.5 29.5 36.5s18.667 27.833 27 41.5s14.166 23.834 17.499 30.501
l10.5 16c3.66699 5.33301 9.16699 8 16.5 8c5.33301 0 10 -1.83301 14 -5.5s6 -8.16699 6 -13.5z" />
    <glyph glyph-name="o" unicode="o" horiz-adv-x="400" 
d="M421 155c0 -2 -0.665039 -5 -1.99805 -9c-8.66699 -18 -21.667 -32.333 -39 -43s-36 -16 -56 -16c-4.66699 0 -9 0.333008 -13 1s-8.33301 1.66699 -13 3c-13.333 -31.333 -33.833 -56.5 -61.5 -75.5s-58.5 -28.5 -92.5 -28.5c-22.667 0 -44 4.5 -64 13.5
s-37.5 21 -52.5 36s-26.667 32.667 -35 53s-12.5 41.833 -12.5 64.5s4.16699 44.167 12.5 64.5s20 38.166 35 53.499s32.5 27.5 52.5 36.5s41.333 13.5 64 13.5c23.333 0 45 -4.5 65 -13.5s37.5 -21.167 52.5 -36.5s26.833 -33.166 35.5 -53.499s13 -41.833 13 -64.5
c0 -4.66699 -0.166992 -9.16699 -0.5 -13.5s-0.833008 -8.5 -1.5 -12.5c3.33301 -0.666992 8.66602 -1 15.999 -1c13.333 0 23.666 2.5 30.999 7.5s13.333 10.333 18 16s8.83398 11 12.501 16s8.5 7.5 14.5 7.5c5.33301 0 10.166 -1.83301 14.499 -5.5
s6.5 -8.16699 6.5 -13.5zM268.002 155c0 7.33301 -0.832031 15.999 -2.49902 25.999s-4.16699 18.667 -7.5 26c-0.666992 -2.66699 -1.66699 -5.16699 -3 -7.5s-2 -5.16602 -2 -8.49902c0 -6.66699 1.66699 -13 5 -19s6.66602 -11.667 9.99902 -17zM260.003 106.999
c-13.333 9.33301 -24.667 21.334 -34 36.001s-14 30.667 -14 48c0 9.33301 1.66699 18.833 5 28.5s8.33301 18.167 15 25.5c-24 25.333 -53.333 38 -88 38c-17.333 0 -33.5 -3.5 -48.5 -10.5s-28 -16.5 -39 -28.5s-19.667 -25.667 -26 -41s-9.5 -31.666 -9.5 -48.999
c0 -16.667 3.16699 -32.834 9.5 -48.501s15 -29.334 26 -41.001s24 -21 39 -28s31.167 -10.5 48.5 -10.5c26 0 49.5 7.5 70.5 22.5s36.167 34.5 45.5 58.5z" />
    <glyph glyph-name="p" unicode="p" horiz-adv-x="420" 
d="M442 151c0 -1.33301 -0.667969 -3.99805 -2.00098 -7.99805s-2.33301 -6.66699 -3 -8c-11.333 -23.333 -28.666 -51 -51.999 -83c-5.33301 -8 -11 -15.333 -17 -22s-12 -13 -18 -19c-9.33301 -9.33301 -18.666 -17 -27.999 -23s-19 -9 -29 -9
c-18.667 0 -33.834 3.83301 -45.501 11.5s-20.834 17.5 -27.501 29.5s-11.167 25.5 -13.5 40.5s-3.5 30.167 -3.5 45.5v117c0 19.333 -6.83301 33.666 -20.5 42.999s-29.167 14 -46.5 14c-8.66699 0 -17 -2.33301 -25 -7s-15 -10.5 -21 -17.5s-10.667 -14.833 -14 -23.5
s-5 -17.334 -5 -26.001l1 -785c0 -5.33301 -2.16699 -10 -6.5 -14s-9.16602 -6 -14.499 -6s-10 2 -14 6s-6 8.66699 -6 14l-1 743c-2 -5.33301 -5.83301 -12.333 -11.5 -21s-11.834 -13 -18.501 -13c-5.33301 0 -10 2 -14 6s-6 8.66699 -6 14c0 3.33301 0.333008 6 1 8
c5.33301 15.333 11.5 30.666 18.5 45.999s12.833 31 17.5 47c2.66699 9.33301 4.83398 18.5 6.50098 27.5s4.16699 17.833 7.5 26.5c2 4.66699 4.5 8.5 7.5 11.5s7.16699 4.5 12.5 4.5c7.33301 0 12.333 -2.66699 15 -8s4.33398 -11 5.00098 -17c19.333 16 41 24 65 24
c14.667 0 28.5 -2.16699 41.5 -6.5s24.5 -10.666 34.5 -18.999s17.833 -18.5 23.5 -30.5s8.5 -25.667 8.5 -41v-117c0 -8.66699 0.333008 -18.167 1 -28.5s2.5 -19.833 5.5 -28.5s7.83301 -15.834 14.5 -21.501s16 -8.5 28 -8.5c9.33301 0 18.5 4.83301 27.5 14.5
s17.833 20.834 26.5 33.501c10 14 19.5 28 28.5 42s15.5 25.333 19.5 34l9 17.5c3.33301 6.33301 8.66602 9.5 15.999 9.5c5.33301 0 10.333 -1.83301 15 -5.5s7 -8.16699 7 -13.5z" />
    <glyph glyph-name="q" unicode="q" horiz-adv-x="477" 
d="M498 151c0 -2 -0.668945 -5.00391 -2.00195 -9.00391c-4.66699 -12.667 -12.5 -28.334 -23.5 -47.001s-23.5 -36.667 -37.5 -54s-29 -32 -45 -44s-31.667 -18 -47 -18c-11.333 0 -22.333 2.66699 -33 8l-3 -569c0 -5.33301 -2.16699 -10 -6.5 -14s-9.16602 -6 -14.499 -6
s-10 2 -14 6s-6 8.66699 -6 14l3 620c-15.333 -18.667 -34 -33.167 -56 -43.5s-45 -15.5 -69 -15.5c-23.333 0 -45 4.66699 -65 14s-37.333 21.833 -52 37.5s-26.167 33.834 -34.5 54.501s-12.5 42.334 -12.5 65.001s4.16699 44.334 12.5 65.001s19.833 39 34.5 55
s32 28.667 52 38s41.667 14 65 14c24 0 47 -5.16699 69 -15.5s40.667 -24.833 56 -43.5c0 4 -0.333008 9.33301 -1 16s-0.5 13 0.5 19s3 11.167 6 15.5s7.83301 6.5 14.5 6.5c6 0 11 -2.16699 15 -6.5s6 -9.16602 6 -14.499v-208v-22c0 -8 1 -15.833 3 -23.5
s5.33301 -14 10 -19s11.334 -7.5 20.001 -7.5c10 0 20.5 4.83301 31.5 14.5s21.167 21.334 30.5 35.001s18 27.5 26 41.5s14 25 18 33l10.5 17.5c3.66699 6.33301 9.16699 9.5 16.5 9.5c5.33301 0 10.333 -1.66699 15 -5s7 -8 7 -14zM268.998 149.996
c0 17.333 -3.16699 34 -9.5 50s-15.166 30 -26.499 42s-24.5 21.667 -39.5 29s-31.5 11 -49.5 11s-34.5 -3.66699 -49.5 -11s-28 -17 -39 -29s-19.5 -26 -25.5 -42s-9 -32.667 -9 -50s3 -33.833 9 -49.5s14.5 -29.5 25.5 -41.5s24 -21.667 39 -29s31.5 -11 49.5 -11
s34.5 3.66699 49.5 11s28.167 17 39.5 29s20.166 25.833 26.499 41.5s9.5 32.167 9.5 49.5z" />
    <glyph glyph-name="r" unicode="r" horiz-adv-x="400" 
d="M421 156c0 -1.33301 -0.665039 -4.00098 -1.99805 -8.00098c-3.33301 -8.66699 -8 -18 -14 -28l-19 -32c-8 -12.667 -16.833 -25 -26.5 -37s-20 -22.667 -31 -32s-22.5 -17 -34.5 -23s-24 -9 -36 -9c-13.333 0 -26 2.66699 -38 8s-22.5 12.666 -31.5 21.999
s-16 20 -21 32s-7.5 24.667 -7.5 38s1.83301 26.5 5.5 39.5s7.5 25.833 11.5 38.5s7.83301 25.5 11.5 38.5s5.5 26.167 5.5 39.5c0 6.66699 -2.33301 12 -7 16s-10.334 7 -17.001 9s-13.667 3.16699 -21 3.5s-13.333 0.5 -18 0.5c-11.333 0 -22.666 -1.33301 -33.999 -4
s-22.666 -4.66699 -33.999 -6c-2 -8.66699 -5.16699 -18.667 -9.5 -30l-13.5 -35c-4.66699 -12 -9.66699 -23.5 -15 -34.5s-10 -20.167 -14 -27.5s-10 -11 -18 -11c-5.33301 0 -10.166 2 -14.499 6s-6.5 8.66699 -6.5 14c0 1.33301 1.16699 4.66602 3.5 9.99902
s4.16602 8.66602 5.49902 9.99902c8 17.333 15.667 35 23 53s13.666 36 18.999 54c-10.667 6 -19 14.5 -25 25.5s-9 22.5 -9 34.5c0 15.333 3.16699 29.666 9.5 42.999s18.5 20 36.5 20c13.333 0 23.833 -4.66699 31.5 -14s11.5 -20 11.5 -32
c0 -7.33301 -0.5 -14.666 -1.5 -21.999s-2.16699 -14.666 -3.5 -21.999c9.33301 1.33301 18.833 3 28.5 5s19.5 3 29.5 3c10.667 0 22 -1.16699 34 -3.5s23.167 -6.16602 33.5 -11.499s19 -12.333 26 -21s10.5 -19.667 10.5 -33s-1.83301 -26.5 -5.5 -39.5
s-7.5 -25.833 -11.5 -38.5s-7.83301 -25.5 -11.5 -38.5s-5.5 -26.167 -5.5 -39.5c0 -15.333 5.66699 -29.166 17 -41.499s24.666 -18.5 39.999 -18.5c8 0 16.167 2.33301 24.5 7s16.333 10.5 24 17.5s15 15 22 24s12.833 17.833 17.5 26.5
c6 10.667 12.167 20.834 18.5 30.501s12.166 20.167 17.499 31.5c3.33301 7.33301 9 11 17 11c5.33301 0 10.333 -1.83301 15 -5.5s7 -8.16699 7 -13.5zM37.002 351.999c0 1.33301 -0.666992 2 -2 2c-2.66699 0 -4.16699 -3 -4.5 -9s-0.5 -9.66699 -0.5 -11v-4
c0 -4 1.33301 -8.66699 4 -14c2 12 3 24 3 36z" />
    <glyph glyph-name="s" unicode="s" horiz-adv-x="395" 
d="M416 156c0 -1.33301 -0.669922 -4.00293 -2.00293 -8.00293c-21.333 -50 -51.333 -89.333 -90 -118s-85.667 -43 -141 -43h-44c-10.667 0 -23.834 2.5 -39.501 7.5s-30.834 11.667 -45.501 20s-27 18.333 -37 30s-15 23.834 -15 36.501c0 6 2 10.833 6 14.5
s8.66699 5.5 14 5.5c10 0 15.833 -3.33301 17.5 -10s4.16699 -13.334 7.5 -20.001c2.66699 -4.66699 7.83398 -9.66699 15.501 -15s16.334 -10.166 26.001 -14.499s19.167 -7.83301 28.5 -10.5s16.666 -4 21.999 -4c16 0 30.333 3.5 43 10.5s23.334 16.333 32.001 28
s15.334 24.667 20.001 39s7 28.833 7 43.5c0 18.667 -6.16699 34.5 -18.5 47.5s-27.5 23.833 -45.5 32.5s-36.833 15.667 -56.5 21s-36.5 9.66602 -50.5 12.999c-7.33301 -16 -14.166 -31.833 -20.499 -47.5s-13.166 -31.5 -20.499 -47.5
c-2.66699 -6 -6.16699 -12.667 -10.5 -20s-10.5 -11 -18.5 -11c-5.33301 0 -10 1.83301 -14 5.5s-6 8.16699 -6 13.5c0 2 2.5 8.66699 7.5 20l16.5 37.5l17.5 39c5.66699 12.333 9.5 20.5 11.5 24.5c-10.667 7.33301 -18.667 16.333 -24 27s-8 22.334 -8 35.001
c0 16 4.66699 29.5 14 40.5s22.333 16.5 39 16.5c13.333 0 24.833 -4.66699 34.5 -14s14.5 -20.666 14.5 -33.999c0 -6 -2.16699 -14.167 -6.5 -24.5s-7.83301 -18.166 -10.5 -23.499c19.333 -4 40.333 -9.5 63 -16.5s43.834 -16.5 63.501 -28.5s36.167 -26.667 49.5 -44
s20 -38 20 -62c0 -20.667 -3.5 -41.167 -10.5 -61.5s-17.167 -38.166 -30.5 -53.499c25.333 7.33301 47.5 19.166 66.5 35.499s35.167 35.833 48.5 58.5c3.33301 6 6.66602 12.333 9.99902 19s7 13 11 19c2.66699 3.33301 5 5.83301 7 7.5s5.33301 2.5 10 2.5
c5.33301 0 10.333 -1.83301 15 -5.5s7 -8.16699 7 -13.5zM61.9971 346.997c0 5.33301 -2.66797 7.99902 -8.00098 7.99902s-8.66602 -1.83301 -9.99902 -5.5s-2 -7.5 -2 -11.5s0.5 -8 1.5 -12s2.83301 -7.66699 5.5 -11c1.33301 3.33301 3.83301 8.83301 7.5 16.5
s5.5 12.834 5.5 15.501z" />
    <glyph glyph-name="t" unicode="t" horiz-adv-x="247" 
d="M267 159c0 -2 -0.666016 -5.00098 -1.99902 -9.00098c-4.66699 -13.333 -12.334 -29.333 -23.001 -48s-23 -36.5 -37 -53.5s-28.833 -31.5 -44.5 -43.5s-31.5 -18 -47.5 -18c-20.667 0 -39.334 4 -56.001 12s-30.667 18.833 -42 32.5s-20 29.5 -26 47.5s-9 36.667 -9 56
v450c0 5.33301 2.16699 10 6.5 14s9.16602 6 14.499 6s10 -2 14 -6s6 -8.66699 6 -14v-139h179c5.33301 0 10 -2 14 -6s6 -8.66699 6 -14s-2 -10 -6 -14s-8.66699 -6 -14 -6h-179v-271c0 -14 2 -27.5 6 -40.5s9.83301 -24.5 17.5 -34.5s17.167 -18 28.5 -24
s24.666 -9 39.999 -9c10.667 0 21.334 4.83301 32.001 14.5s20.834 21.167 30.501 34.5s18.334 26.833 26.001 40.5s13.5 24.834 17.5 33.501l10.5 18.5c3.66699 6.33301 9.5 9.5 17.5 9.5c5.33301 0 10 -1.83301 14 -5.5s6 -8.16699 6 -13.5z" />
    <glyph glyph-name="u" unicode="u" horiz-adv-x="473" 
d="M495 155c0 -1.33301 -0.330078 -2.83301 -0.99707 -4.5s-1.33398 -3.16699 -2.00098 -4.5c-6 -12.667 -14.333 -28.167 -25 -46.5s-22.5 -35.833 -35.5 -52.5s-27.333 -30.834 -43 -42.501s-31.5 -17.5 -47.5 -17.5c-32 0 -53.667 15.333 -65 46
c-0.666992 1.33301 -1.16699 4 -1.5 8s-0.833008 6.66699 -1.5 8c-1.33301 -1.33301 -2.33301 -4.33301 -3 -9s-1.66699 -7.66699 -3 -9c-11.333 -13.333 -24.666 -24 -39.999 -32s-32 -12 -50 -12c-18.667 0 -36.834 3 -54.501 9s-33.334 14.5 -47.001 25.5
s-24.667 24.667 -33 41s-12.5 34.5 -12.5 54.5v40l-1 21c-0.666992 -1.33301 -1 -4 -1 -8s-0.333008 -6.66699 -1 -8c-3.33301 -5.33301 -7.33301 -11.333 -12 -18s-9.66699 -10 -15 -10s-10 2 -14 6s-6 8.66699 -6 14c0 3.33301 1.66699 9.33301 5 18l11.5 28.5l12.5 30.5
c4 10 6.66699 17.333 8 22c1.33301 4 2.5 9 3.5 15s2.33301 12 4 18s3.5 11.667 5.5 17s4.33301 9.33301 7 12c4 4 8.66699 6 14 6c6 0 10.833 -2.33301 14.5 -7s5.5 -9.66699 5.5 -15v-182c0 -14.667 3 -27.667 9 -39s14 -20.833 24 -28.5s21.333 -13.5 34 -17.5
s25.667 -6 39 -6c15.333 0 28.666 4 39.999 12s20.666 18.167 27.999 30.5s12.833 25.833 16.5 40.5s5.5 28.334 5.5 41.001v149c0 5.33301 2 10 6 14s8.66699 6 14 6s10.166 -2 14.499 -6s6.5 -8.66699 6.5 -14v-202v-22c0 -8 1 -15.667 3 -23s5.33301 -13.5 10 -18.5
s11.334 -7.5 20.001 -7.5c9.33301 0 18.833 4 28.5 12s19 17.667 28 29s17 22.833 24 34.5s12.5 21.167 16.5 28.5c3.33301 5.33301 6.33301 11 9 17s5.66699 11.667 9 17c4.66699 6.66699 10.334 10 17.001 10c5.33301 0 10.333 -1.83301 15 -5.5s7 -8.16699 7 -13.5z" />
    <glyph glyph-name="v" unicode="v" horiz-adv-x="426" 
d="M453 160c0 -2 -0.333008 -3.99609 -1 -5.99609s-1.33398 -3.66699 -2.00098 -5c-4 -10.667 -10.167 -20.167 -18.5 -28.5s-17.5 -15 -27.5 -20s-20.667 -8.33301 -32 -10s-22.333 -1.83398 -33 -0.500977l-1 -7c-12.667 -30.667 -30.334 -54.334 -53.001 -71.001
s-51 -25 -85 -25c-25.333 0 -45.5 5.83301 -60.5 17.5s-26.333 26.5 -34 44.5s-12.5 37.833 -14.5 59.5s-3 42.167 -3 61.5c0 15.333 0.166992 30.666 0.5 45.999s0.5 30.666 0.5 45.999v10c0 5.33301 -1.66699 8 -5 8c-4.66699 0 -9.33398 -3.66699 -14.001 -11
s-9 -16.333 -13 -27l-12.5 -35c-4.33301 -12.667 -8.66602 -24.334 -12.999 -35.001s-9.16602 -19.667 -14.499 -27s-11 -11 -17 -11c-5.33301 0 -10 2 -14 6s-6 8.66699 -6 14c0 3.33301 1.66699 9.66602 5 18.999l11 29.5c4 10.333 8.16699 20.333 12.5 30
s7.5 16.5 9.5 20.5l12 21c4.66699 8 9.83398 15.333 15.501 22s12 12.334 19 17.001s14.5 7 22.5 7c9.33301 0 16.833 -2.66699 22.5 -8s10 -12 13 -20s5 -16.333 6 -25s1.5 -16.667 1.5 -24c0 -13.333 -0.333008 -26.333 -1 -39s-1 -25.667 -1 -39
c0 -12.667 0.5 -27 1.5 -43s3.83301 -31.167 8.5 -45.5s11.834 -26.333 21.501 -36s23.167 -14.5 40.5 -14.5c21.333 0 42 6.5 62 19.5s32.667 30.5 38 52.5c-11.333 4 -21 11 -29 21s-14.5 20.667 -19.5 32s-8.66699 22.833 -11 34.5s-3.5 21.5 -3.5 29.5
c0 10 0.666992 21 2 33s4.16602 23.167 8.49902 33.5s10.5 18.833 18.5 25.5s18.667 10 32 10c12 0 21.833 -4.33301 29.5 -13s13.834 -19.167 18.501 -31.5s8 -25 10 -38s3 -24.167 3 -33.5c0 -12 -0.666992 -24 -2 -36s-3 -23.667 -5 -35
c15.333 0.666992 27.833 3.83398 37.5 9.50098s16.5 12.167 20.5 19.5c3.33301 6.66699 6.33301 11.667 9 15s7 5 13 5c5.33301 0 10.166 -1.83301 14.499 -5.5s6.5 -8.16699 6.5 -13.5zM318 201.004c0 3.33301 -0.166992 9.16699 -0.5 17.5s-1.16602 17 -2.49902 26
s-3.33301 16.833 -6 23.5s-6.33398 10 -11.001 10s-8.5 -1.66699 -11.5 -5s-5.16699 -7.33301 -6.5 -12s-2.16602 -9.66699 -2.49902 -15s-0.5 -9.66602 -0.5 -12.999c0 -8.66699 0.166992 -17.834 0.5 -27.501s1.66602 -19.167 3.99902 -28.5s5.83301 -18 10.5 -26
s11 -14.667 19 -20c2.66699 11.333 4.5 23 5.5 35s1.5 23.667 1.5 35z" />
    <glyph glyph-name="w" unicode="w" horiz-adv-x="641" 
d="M667 160c0 -2 -0.333984 -3.99512 -1.00098 -5.99512s-1.33398 -3.66699 -2.00098 -5c-4 -10.667 -10 -20.167 -18 -28.5s-17 -15 -27 -20s-20.667 -8.33301 -32 -10s-22.333 -1.83398 -33 -0.500977l-1 -7c-12.667 -30.667 -30.334 -54.334 -53.001 -71.001
s-51 -25 -85 -25c-22.667 0 -42.167 6.5 -58.5 19.5s-29.166 29.5 -38.499 49.5c-12.667 -23.333 -29.334 -40.666 -50.001 -51.999s-44.334 -17 -71.001 -17c-16.667 0 -32 3.83301 -46 11.5s-25.667 17.667 -35 30s-16.666 26.166 -21.999 41.499s-8 31 -8 47v145
c0 1.33301 -0.166992 4.66602 -0.5 9.99902s-1.83301 8 -4.5 8c-4.66699 0 -9.16699 -3.66699 -13.5 -11s-8.5 -16.333 -12.5 -27s-7.83301 -22.334 -11.5 -35.001s-7.66699 -24.334 -12 -35.001s-9 -19.667 -14 -27s-10.833 -11 -17.5 -11c-5.33301 0 -10 2 -14 6
s-6 8.66699 -6 14c0 3.33301 1.5 9.66602 4.5 18.999s6.66699 19.333 11 30l12.5 30c4 9.33301 7 16 9 20l11.5 21c4.33301 8 9.33301 15.333 15 22s12 12.334 19 17.001s14.5 7 22.5 7c9.33301 0 16.833 -2.66699 22.5 -8s10 -12 13 -20s5 -16.333 6 -25
s1.5 -16.667 1.5 -24v-126c0 -10 1.5 -20.333 4.5 -31s7.33301 -20.5 13 -29.5s12.834 -16.333 21.501 -22s18.667 -8.5 30 -8.5c26.667 0 47.334 6.66699 62.001 20s25.334 30 32.001 50s10.667 41.667 12 65s2 44.666 2 63.999v74c0 5.33301 2 10 6 14s8.66699 6 14 6
s10.166 -2 14.499 -6s6.5 -8.66699 6.5 -14v-98v-84c0 -10 1.5 -20.333 4.5 -31s7.33301 -20.5 13 -29.5s12.834 -16.333 21.501 -22s18.667 -8.5 30 -8.5c21.333 0 41.833 6.5 61.5 19.5s32.167 30.5 37.5 52.5c-11.333 4 -21 11 -29 21s-14.5 20.667 -19.5 32
s-8.66699 22.833 -11 34.5s-3.5 21.5 -3.5 29.5c0 10 0.666992 21 2 33s4.33301 23.167 9 33.5s11 18.833 19 25.5s18.667 10 32 10c12 0 21.833 -4.33301 29.5 -13s13.667 -19.167 18 -31.5s7.5 -25 9.5 -38s3 -24.167 3 -33.5c0 -24 -2 -47.667 -6 -71
c15.333 0.666992 27.833 3.83398 37.5 9.50098s16.5 12.167 20.5 19.5c3.33301 6.66699 6.33301 11.667 9 15s7 5 13 5c5.33301 0 10 -1.83301 14 -5.5s6 -8.16699 6 -13.5zM531.999 201.005c0 3.33301 -0.169922 9.16699 -0.50293 17.5s-1.16602 17 -2.49902 26
s-3.16602 16.833 -5.49902 23.5s-5.83301 10 -10.5 10s-8.5 -1.66699 -11.5 -5s-5.16699 -7.33301 -6.5 -12s-2.16602 -9.66699 -2.49902 -15s-0.5 -9.66602 -0.5 -12.999c0 -8.66699 0.166992 -17.834 0.5 -27.501s1.66602 -19.167 3.99902 -28.5s5.83301 -18 10.5 -26
s11 -14.667 19 -20c2.66699 11.333 4.33398 23 5.00098 35s1 23.667 1 35z" />
    <glyph glyph-name="x" unicode="x" horiz-adv-x="617" 
d="M638 155c0 -2 -0.663086 -4.99707 -1.99609 -8.99707c-8.66699 -20.667 -19 -40.667 -31 -60s-25.833 -36.333 -41.5 -51s-33.334 -26.334 -53.001 -35.001s-41.834 -13 -66.501 -13c-30.667 0 -58.667 7.83301 -84 23.5s-45.333 36.834 -60 63.501
c-14.667 -26.667 -34.834 -47.834 -60.501 -63.501s-53.834 -23.5 -84.501 -23.5c-12 0 -23.833 2 -35.5 6s-22.834 9.5 -33.501 16.5s-20.5 15 -29.5 24s-16.5 18.167 -22.5 27.5c-2.66699 4 -4 8 -4 12c0 5.33301 2 9.66602 6 12.999s8.66699 5 14 5
s11.166 -3.33301 17.499 -10l22 -22.5c8.33301 -8.33301 17.833 -15.833 28.5 -22.5s23 -10 37 -10c17.333 0 33.666 3.5 48.999 10.5s28.666 16.333 39.999 28s20.166 25.167 26.499 40.5s9.5 31.666 9.5 48.999s-3.16699 33.666 -9.5 48.999s-15.166 29 -26.499 41
s-24.666 21.5 -39.999 28.5s-31.666 10.5 -48.999 10.5c-24 0 -42.5 -4.5 -55.5 -13.5s-23.667 -20.167 -32 -33.5s-15.833 -28.166 -22.5 -44.499s-15.667 -31.833 -27 -46.5c-2.66699 -3.33301 -5.33398 -6 -8.00098 -8s-6 -3 -10 -3c-5.33301 0 -10 2 -14 6
s-6 8.66699 -6 14c0 4 1.83301 10.167 5.5 18.5s8 17 13 26l15 26c5 8.33301 8.83301 14.5 11.5 18.5c8 14 16.333 25.833 25 35.5s18 17.834 28 24.501s21.167 11.5 33.5 14.5s26.833 4.5 43.5 4.5c30.667 0 58.834 -8 84.501 -24s45.834 -37.333 60.501 -64
c14.667 26.667 34.667 48 60 64s53.333 24 84 24c20 0 41 -4 63 -12s39.667 -19.667 53 -35c4 -5.33301 6 -10 6 -14c0 -5.33301 -2.16699 -9.83301 -6.5 -13.5s-9.16602 -5.5 -14.499 -5.5c-2 0 -6.33301 2.16699 -13 6.5s-14.5 9 -23.5 14s-19 9.66699 -30 14
s-22.5 6.5 -34.5 6.5c-17.333 0 -33.5 -3.5 -48.5 -10.5s-28 -16.5 -39 -28.5s-19.667 -25.667 -26 -41s-9.5 -31.666 -9.5 -48.999c0 -16.667 3.16699 -32.834 9.5 -48.501s15 -29.334 26 -41.001s24 -21 39 -28s31.167 -10.5 48.5 -10.5c20.667 0 38.5 3.66699 53.5 11
s27.833 16.5 38.5 27.5s19.834 22.833 27.501 35.5s14.5 24.5 20.5 35.5s11.5 20.167 16.5 27.5s10.5 11 16.5 11c5.33301 0 10.166 -1.83301 14.499 -5.5s6.5 -8.16699 6.5 -13.5z" />
    <glyph glyph-name="y" unicode="y" horiz-adv-x="466" 
d="M488 150c0 -2.66699 -0.999023 -5.66504 -2.99902 -8.99805c-21.333 -40 -47.5 -75.667 -78.5 -107s-64.167 -60 -99.5 -86v-248c0 -23.333 -1.66699 -51.833 -5 -85.5s-9 -66.334 -17 -98.001s-18.833 -58.834 -32.5 -81.501s-30.5 -34 -50.5 -34
s-36.333 8.83301 -49 26.5s-22.5 39.834 -29.5 66.501s-11.667 55.167 -14 85.5s-3.5 57.5 -3.5 81.5c0 34 5.33301 66.167 16 96.5s24 58.833 40 85.5s33.333 51.167 52 73.5s36 38.166 52 47.499v57c-24 -28 -54 -42 -90 -42c-19.333 0 -37.833 3.16699 -55.5 9.5
s-33.167 15.166 -46.5 26.499s-24 25.333 -32 42s-12 35 -12 55v52c-2.66699 -6.66699 -6.16699 -14 -10.5 -22s-10.833 -12 -19.5 -12c-5.33301 0 -10 2 -14 6s-6 8.66699 -6 14c0 4 0.333008 7 1 9l19.5 46c6.33301 15.333 11.833 31 16.5 47
c2.66699 8.66699 4.83398 17.334 6.50098 26.001s4.16699 17.334 7.5 26.001c1.33301 4.66699 3.66602 8.66699 6.99902 12s7.66602 5 12.999 5c6 0 10.833 -2.33301 14.5 -7s5.5 -9.66699 5.5 -15v-187c0 -14.667 2.83301 -27.834 8.5 -39.501s13.334 -21.5 23.001 -29.5
s20.834 -14 33.501 -18s26 -6 40 -6c16 0 29.667 4.16699 41 12.5s20.666 18.666 27.999 30.999s12.666 26 15.999 41s5 29.167 5 42.5v152c0 6 2 10.833 6 14.5s8.66699 5.5 14 5.5s10.166 -1.83301 14.499 -5.5s6.5 -8.5 6.5 -14.5v-302
c22 18.667 43.167 38.167 63.5 58.5s38.5 42.5 54.5 66.5c4.66699 6.66699 8.66699 13.334 12 20.001s7.33301 13 12 19c4.66699 6.66699 10.334 10 17.001 10c5.33301 0 10.333 -2 15 -6s7 -8.66699 7 -14zM266.001 -99.998c-9.33301 -9.33301 -18 -18.8311 -26 -28.498
l-25 -30.5c-18 -23.333 -33.833 -49.333 -47.5 -78s-20.5 -62.334 -20.5 -101.001c0 -14.667 0.333008 -33.334 1 -56.001s2.83398 -44.834 6.50098 -66.501s9.16699 -40.167 16.5 -55.5s17.666 -23 30.999 -23c12 0 22.167 9.66699 30.5 29s15 41.833 20 67.5
s8.5 51.334 10.5 77.001s3 45.5 3 59.5v206z" />
    <glyph glyph-name="z" unicode="z" horiz-adv-x="393" 
d="M412 152c0 -2.66699 -0.667969 -5.33691 -2.00098 -8.00391c-10 -27.333 -23.333 -53 -40 -77s-34.667 -46.667 -54 -68c6.66699 -22 13.334 -47.5 20.001 -76.5s12.334 -58.5 17.001 -88.5s8 -60.167 10 -90.5s3 -58.166 3 -83.499c0 -24.667 -2.16699 -52 -6.5 -82
s-11.5 -58 -21.5 -84s-23.167 -48 -39.5 -66s-36.166 -27 -59.499 -27c-22.667 0 -42.167 8.66699 -58.5 26s-29.666 39 -39.999 65s-17.833 53.833 -22.5 83.5s-7 56.834 -7 81.501c0 40 4.16699 75.5 12.5 106.5s19.166 60 32.499 87s28.833 52.667 46.5 77
s38.167 49.166 61.5 74.499c-3.33301 4 -7.66602 7.83301 -12.999 11.5s-10.666 5.5 -15.999 5.5c-12 0 -23.333 -2 -34 -6s-20.667 -8.5 -30 -13.5l-25 -13.5c-7.33301 -4 -13.333 -6 -18 -6c-5.33301 0 -10 1.66699 -14 5s-6 7.66602 -6 12.999
c0 0.666992 0.166992 1.33398 0.5 2.00098s0.5 1.33398 0.5 2.00098c4 14 10.667 32.167 20 54.5l27.5 68c9 23 17 45 24 66s10.5 37.5 10.5 49.5c0 6.66699 -2.16699 12 -6.5 16s-9.66602 7 -15.999 9s-13 3.33301 -20 4s-12.833 1 -17.5 1c-12 0 -23.833 -1.5 -35.5 -4.5
s-23.5 -4.83301 -35.5 -5.5c-2 -7.33301 -4.33301 -16.5 -7 -27.5s-5.83398 -22.167 -9.50098 -33.5s-7.33398 -22 -11.001 -32s-7.5 -18 -11.5 -24c-2.66699 -3.33301 -5.16699 -6.16602 -7.5 -8.49902s-6.16602 -3.5 -11.499 -3.5s-10 2 -14 6s-6 8.66699 -6 14
c0 0.666992 1.83301 6.5 5.5 17.5l12 37c4.33301 13.667 8.66602 26.667 12.999 39s6.83301 20.5 7.5 24.5c-10.667 6.66699 -19 15.334 -25 26.001s-9 22.334 -9 35.001c0 15.333 3.66699 30 11 44s20 21 38 21c13.333 0 23.666 -5.5 30.999 -16.5s11 -22.5 11 -34.5
c0 -7.33301 -0.666992 -14.5 -2 -21.5l-4 -21.5c10 1.33301 19.833 3.33301 29.5 6s19.834 4 30.501 4s22 -1.33301 34 -4s23 -6.66699 33 -12s18.167 -12.5 24.5 -21.5s9.5 -20.167 9.5 -33.5c0 -8 -1.5 -17.5 -4.5 -28.5s-6.5 -22.333 -10.5 -34s-8.16699 -23 -12.5 -34
s-7.83301 -20.833 -10.5 -29.5c-3.33301 -12 -7.33301 -23.5 -12 -34.5s-10 -22.167 -16 -33.5c8 4 19.167 7.16699 33.5 9.5s26.166 3.5 35.499 3.5c22.667 0 42 -8.66699 58 -26c12.667 15.333 24.667 31.166 36 47.499s21.333 33.166 30 50.499l6 14
c2 4.66699 4.33301 9.33398 7 14.001l7.5 9c2.33301 2.66699 6.16602 4 11.499 4s10.166 -2 14.499 -6s6.5 -8.66699 6.5 -14zM34.999 347.997c0 2.66699 -0.666016 4.66797 -1.99902 6.00098c-3.33301 -1.33301 -5.33301 -3.83301 -6 -7.5s-1 -6.83398 -1 -9.50098v-6
c0 -3.33301 0.666992 -6.5 2 -9.5s2.66602 -5.83301 3.99902 -8.5c2 10 3 20 3 30v5zM323 -340.002c0 48 -3.00098 98.001 -9.00098 150.001s-17 99.667 -33 143l-47 -65c-14.667 -20.667 -28 -42.667 -40 -66s-21.5 -48.166 -28.5 -74.499s-10.5 -56.5 -10.5 -90.5
c0 -16 1.66699 -35.333 5 -58s8.33301 -44.334 15 -65.001s15.334 -38.5 26.001 -53.5s23.334 -22.5 38.001 -22.5c15.333 0 28.333 7.66699 39 23s19.167 33.666 25.5 54.999s11.166 43.5 14.499 66.5s5 42.167 5 57.5z" />
    <glyph glyph-name="braceleft" unicode="{" horiz-adv-x="240" 
d="M196 -262c0 -5.33301 -2.16992 -9.99805 -6.50293 -13.998s-9.16602 -6 -14.499 -6c-21.333 0 -38.166 6.83301 -50.499 20.5s-21.5 30.167 -27.5 49.5s-9.83301 39.833 -11.5 61.5s-2.5 40.167 -2.5 55.5c0 27.333 0.333008 54.166 1 80.499s1 53.166 1 80.499
c0 11.333 -0.333008 25.833 -1 43.5s-2.5 35.667 -5.5 54s-7.66699 35 -14 50s-15.5 25.167 -27.5 30.5c-3.33301 1.33301 -7.5 2.66602 -12.5 3.99902s-9.83301 3 -14.5 5s-8.66699 4.5 -12 7.5s-5 6.83301 -5 11.5c0 5.33301 1.66699 9.33301 5 12
s7.5 4.83398 12.5 6.50098s10 3 15 4s9.16699 2.5 12.5 4.5c12 6 21.333 16.833 28 32.5s11.5 32.834 14.5 51.501s4.66699 37.334 5 56.001s0.5 34 0.5 46c0 25.333 -0.166992 50.833 -0.5 76.5s-0.5 51.167 -0.5 76.5c0 15.333 0.666992 33.666 2 54.999s5 41.833 11 61.5
s15 36.334 27 50.001s28.667 20.5 50 20.5c5.33301 0 10.166 -2 14.499 -6s6.5 -8.66699 6.5 -14s-1.33301 -9.5 -4 -12.5s-5.83398 -5.16699 -9.50098 -6.5s-7.66699 -2.5 -12 -3.5s-8.16602 -2.16699 -11.499 -3.5c-8.66699 -4 -15.167 -12 -19.5 -24
s-7.5 -25.333 -9.5 -40s-3.16699 -29.167 -3.5 -43.5s-0.5 -25.5 -0.5 -33.5c0 -25.333 0.333008 -50.833 1 -76.5s1 -51.167 1 -76.5c0 -16.667 -0.333008 -35 -1 -55s-3 -39.833 -7 -59.5s-10 -38.167 -18 -55.5s-19 -31.666 -33 -42.999
c14 -11.333 24.833 -25.5 32.5 -42.5s13.334 -35.333 17.001 -55s5.83398 -39.334 6.50098 -59.001s1 -37.5 1 -53.5c0 -28 -0.333008 -55.667 -1 -83s-1 -55 -1 -83c0 -8 0.166992 -18.667 0.5 -32s1.5 -26.833 3.5 -40.5s5.33301 -26.167 10 -37.5s11.334 -19 20.001 -23
c3.33301 -1.33301 7.16602 -2.33301 11.499 -3s8.5 -1.83398 12.5 -3.50098s7.33301 -3.83398 10 -6.50098s4 -6.66699 4 -12z" />
    <glyph glyph-name="bar" unicode="|" horiz-adv-x="174" 
d="M108 7c0 -5.33301 -2.16699 -10 -6.5 -14s-9.16602 -6 -14.499 -6s-10 2 -14 6s-6 8.66699 -6 14v711c0 5.33301 2 10 6 14s8.66699 6 14 6s10.166 -2 14.499 -6s6.5 -8.66699 6.5 -14v-711z" />
    <glyph glyph-name="braceright" unicode="}" horiz-adv-x="240" 
d="M248 272c0 -4.66699 -1.66895 -8.50293 -5.00195 -11.5029s-7.5 -5.5 -12.5 -7.5s-10 -3.66699 -15 -5s-9.16699 -2.66602 -12.5 -3.99902c-12 -5.33301 -21.167 -15.833 -27.5 -31.5s-11 -32.834 -14 -51.501s-4.66699 -37.334 -5 -56.001s-0.5 -33.667 -0.5 -45
c0 -26 0.333008 -52.167 1 -78.5s1 -52.5 1 -78.5c0 -15.333 -0.833008 -33.666 -2.5 -54.999s-5.66699 -41.666 -12 -60.999s-15.666 -35.666 -27.999 -48.999s-29.166 -20 -50.499 -20c-5.33301 0 -10 2 -14 6s-6 8.66699 -6 14s1.33301 9.33301 4 12
s5.83398 4.83398 9.50098 6.50098s7.66699 2.83398 12 3.50098s8.16602 1.66699 11.499 3c8 4 14.333 11.5 19 22.5s8.16699 23.333 10.5 37s3.66602 27 3.99902 40s0.5 23.5 0.5 31.5c0 28 -0.166992 55.667 -0.5 83s-0.5 55 -0.5 83c0 16.667 0.333008 35 1 55
s2.83398 39.667 6.50098 59s9.33398 37.666 17.001 54.999s18.5 31.666 32.5 42.999c-14 11.333 -25 25.666 -33 42.999s-14 36 -18 56s-6.33301 40.167 -7 60.5s-1 38.833 -1 55.5c0 26.667 0.333008 53 1 79s1 52.333 1 79c0 8 -0.166992 18.667 -0.5 32s-1.5 27 -3.5 41
s-5.33301 26.667 -10 38s-11 19 -19 23c-3.33301 2 -7.16602 3.33301 -11.499 4s-8.33301 1.83398 -12 3.50098s-6.83398 3.83398 -9.50098 6.50098s-4 6.66699 -4 12s2 10 6 14s8.66699 6 14 6c21.333 0 38 -6.83301 50 -20.5s21 -30.167 27 -49.5
s9.83301 -39.5 11.5 -60.5s2.5 -39.167 2.5 -54.5c0 -26 -0.166992 -52 -0.5 -78s-0.5 -52 -0.5 -78c0 -11.333 0.166992 -26.333 0.5 -45s2 -37.5 5 -56.5s7.83301 -36.333 14.5 -52s16 -26.167 28 -31.5c3.33301 -1.33301 7.66602 -2.66602 12.999 -3.99902
s10.333 -2.83301 15 -4.5s8.66699 -3.83398 12 -6.50098s5 -6.66699 5 -12z" />
    <glyph glyph-name="asciitilde" unicode="~" horiz-adv-x="576" 
d="M375 544c0 -8.66699 -3.50488 -16.498 -10.5049 -23.498s-15.167 -13 -24.5 -18s-19.166 -9 -29.499 -12s-19.166 -4.5 -26.499 -4.5c-18 0 -34.5 3.5 -49.5 10.5s-29 14.5 -42 22.5l-37 22.5c-11.667 7 -23.167 10.5 -34.5 10.5c-8 0 -14.667 -2.33301 -20 -7
s-10 -10 -14 -16s-7.83301 -11.333 -11.5 -16s-8.5 -7 -14.5 -7c-5.33301 0 -10.166 1.66699 -14.499 5s-6.5 7.66602 -6.5 12.999c0 3.33301 0.333008 5.66602 1 6.99902c7.33301 16 18 29.5 32 40.5s30 16.5 48 16.5c16.667 0 31.667 -3.5 45 -10.5s26.333 -14.5 39 -22.5
s25.334 -15.5 38.001 -22.5s26.334 -10.5 41.001 -10.5c11.333 0 21.333 2.83301 30 8.5s15.667 13.167 21 22.5c4 6.66699 10 10 18 10c5.33301 0 10.333 -1.66699 15 -5s7 -8 7 -14z" />
    <glyph glyph-name="dieresis" unicode="&#xa8;" horiz-adv-x="360" 
d="M237 447c0 -12 -4.33301 -22.167 -13 -30.5s-19 -12.5 -31 -12.5s-22.5 4.16699 -31.5 12.5s-13.5 18.5 -13.5 30.5s4.5 22.167 13.5 30.5s19.5 12.5 31.5 12.5s22.333 -4.16699 31 -12.5s13 -18.5 13 -30.5zM125 447c0 -12 -4.33301 -22.167 -13 -30.5
s-19 -12.5 -31 -12.5s-22.667 4.16699 -32 12.5s-14 18.5 -14 30.5s4.66699 22.167 14 30.5s20 12.5 32 12.5s22.333 -4.16699 31 -12.5s13 -18.5 13 -30.5z" />
    <glyph glyph-name="guillemotleft" unicode="&#xab;" horiz-adv-x="474" 
d="M413 10c0 -5.33301 -2.16699 -9.99902 -6.5 -13.999s-9.16602 -6 -14.499 -6c-6.66699 0 -12 2.33301 -16 7l-146 172c-2.66699 2.66699 -4 6.66699 -4 12s1.33301 9.66602 4 12.999l146 174c4 4.66699 9.33301 7 16 7c5.33301 0 10.166 -2 14.499 -6
s6.5 -8.66699 6.5 -14c0 -4 -1.66699 -8.33301 -5 -13l-135 -161l135 -159c3.33301 -3.33301 5 -7.33301 5 -12zM273 10.001c0 -5.33301 -2.16699 -9.99902 -6.5 -13.999s-9.16602 -6 -14.499 -6c-6.66699 0 -12 2.33301 -16 7l-146 172c-2.66699 2.66699 -4 6.66699 -4 12
s1.33301 9.66602 4 12.999l146 174c4 4.66699 9.33301 7 16 7c5.33301 0 10.166 -2 14.499 -6s6.5 -8.66699 6.5 -14c0 -4 -1.66699 -8.33301 -5 -13l-135 -161l135 -159c3.33301 -3.33301 5 -7.33301 5 -12z" />
    <glyph glyph-name="minus" unicode="&#xad;" horiz-adv-x="712" 
d="M589 172c0 -6 -1.99902 -10.833 -5.99902 -14.5s-9 -5.5 -15 -5.5h-425c-5.33301 0 -10 2 -14 6s-6 8.66699 -6 14c0 6 2 11 6 15s8.66699 6 14 6h425c5.33301 0 10.166 -2 14.499 -6s6.5 -9 6.5 -15z" />
    <glyph glyph-name="degree" unicode="&#xb0;" horiz-adv-x="240" 
d="M207 616c0 -21.333 -8.16699 -38.666 -24.5 -51.999s-34.5 -20 -54.5 -20s-38 6.66699 -54 20s-24 30.666 -24 51.999s8 38.5 24 51.5s34 19.5 54 19.5s38.167 -6.5 54.5 -19.5s24.5 -30.167 24.5 -51.5zM166 616c0 10 -4 18.167 -12 24.5s-16.667 9.5 -26 9.5
s-17.833 -3.16699 -25.5 -9.5s-11.5 -14.5 -11.5 -24.5s3.83301 -18.333 11.5 -25s16.167 -10 25.5 -10s18 3.33301 26 10s12 15 12 25z" />
    <glyph glyph-name="twosuperior" unicode="&#xb2;" horiz-adv-x="133" 
d="M154 149c0 -0.666992 -0.666992 -2.33105 -2 -4.99805c-5.33301 -12.667 -13.5 -28 -24.5 -46s-23.333 -35.167 -37 -51.5s-28.334 -30.333 -44.001 -42s-31.167 -17.5 -46.5 -17.5c-5.33301 0 -10 1.83301 -14 5.5s-6 8.16699 -6 13.5s2 9.83301 6 13.5
s8.66699 5.5 14 5.5c9.33301 0 18.833 3.83301 28.5 11.5s18.834 17 27.501 28s16.667 22.167 24 33.5s13 20.666 17 27.999c2 3.33301 4 7.33301 6 12s4.5 9.16699 7.5 13.5s6.33301 8.16602 10 11.499s7.5 5 11.5 5c5.33301 0 10.333 -1.83301 15 -5.5s7 -8.16699 7 -13.5
z" />
    <glyph glyph-name="acute" unicode="&#xb4;" horiz-adv-x="198" 
d="M106 626c0 -5.33301 -2 -14 -6 -26s-9 -24 -15 -36s-12.5 -22.667 -19.5 -32s-13.5 -14 -19.5 -14c-5.33301 0 -10.166 1.83301 -14.499 5.5s-6.5 8.16699 -6.5 13.5c0 2.66699 2.16699 7.33398 6.5 14.001l14 22.5c5 8.33301 9.5 17.166 13.5 26.499s6 18 6 26
c0 5.33301 -1.16699 10.5 -3.5 15.5s-4.83301 9.66699 -7.5 14l-7.5 12c-2.33301 3.66699 -3.5 6.5 -3.5 8.5c0 5.33301 2.16699 10 6.5 14s9.16602 6 14.499 6c6 0 11.5 -2.83301 16.5 -8.5s9.33301 -12.167 13 -19.5s6.66699 -15 9 -23s3.5 -14.333 3.5 -19z" />
    <glyph glyph-name="cedilla" unicode="&#xb8;" horiz-adv-x="373" 
d="M301 -144c0 -10 -2.8291 -18.8301 -8.49609 -26.4971s-12.834 -14 -21.501 -19s-18 -8.66699 -28 -11s-19.333 -3.5 -28 -3.5s-17.5 0.666992 -26.5 2s-17.833 3.66602 -26.5 6.99902s-16.334 7.83301 -23.001 13.5s-12 12.834 -16 21.501
c-0.666992 1.33301 -1 3.33301 -1 6c0 5.33301 2.16699 9.83301 6.5 13.5s9.16602 5.5 14.499 5.5s9.33301 -1.66699 12 -5s6 -6.83301 10 -10.5s9.83301 -7.16699 17.5 -10.5s18.5 -5 32.5 -5c3.33301 0 7.5 0.333008 12.5 1s9.83301 1.83398 14.5 3.50098
s8.83398 4 12.501 7s5.5 6.5 5.5 10.5s-1.83301 8.16699 -5.5 12.5s-8.16699 8.16602 -13.5 11.499s-10.833 6.16602 -16.5 8.49902s-10.5 3.5 -14.5 3.5s-8.33301 -1.16699 -13 -3.5s-9.66699 -3.5 -15 -3.5c-10.667 0 -16 5 -16 15c0 3.33301 0.333008 6 1 8
c6 28 9 57 9 87c0 5.33301 2.16699 9.83301 6.5 13.5s9.16602 5.5 14.499 5.5s10.166 -1.83301 14.499 -5.5s6.5 -8.16699 6.5 -13.5c0 -10.667 -0.5 -21.334 -1.5 -32.001s-2.16699 -21.334 -3.5 -32.001c9.33301 -0.666992 19.166 -3 29.499 -7s19.833 -9.33301 28.5 -16
s15.834 -14.5 21.501 -23.5s8.5 -18.5 8.5 -28.5z" />
    <glyph glyph-name="ordmasculine" unicode="&#xba;" horiz-adv-x="500" 
 />
    <glyph glyph-name="guillemotright" unicode="&#xbb;" horiz-adv-x="474" 
d="M415 181c0 -4.66699 -1.66699 -8.66602 -5 -11.999l-146 -172c-4 -4.66699 -9.33301 -7 -16 -7c-5.33301 0 -10 2 -14 6s-6 8.66699 -6 14s1.33301 9.33301 4 12l135 159l-135 161c-2.66699 3.33301 -4 7.66602 -4 12.999s2 10 6 14s8.66699 6 14 6
c6.66699 0 12 -2.33301 16 -7l146 -174c3.33301 -4.66699 5 -9 5 -13zM275 181.001c0 -4.66699 -1.66699 -8.66602 -5 -11.999l-146 -172c-4 -4.66699 -9.33301 -7 -16 -7c-5.33301 0 -10 2 -14 6s-6 8.66699 -6 14s1.33301 9.33301 4 12l135 159l-135 161
c-2.66699 3.33301 -4 7.66602 -4 12.999s2 10 6 14s8.66699 6 14 6c6.66699 0 12 -2.33301 16 -7l146 -174c3.33301 -4.66699 5 -9 5 -13z" />
    <glyph glyph-name="Agrave" unicode="&#xc0;" horiz-adv-x="733" 
d="M433 809c0 -5.33301 -2 -10.166 -6 -14.499s-8.66699 -6.5 -14 -6.5s-15.5 5.33301 -30.5 16s-30.333 23 -46 37s-29.5 27.833 -41.5 41.5s-18 23.167 -18 28.5s2.33301 10 7 14s9.66699 6 15 6c6 0 11 -2.33301 15 -7c8 -8.66699 15.5 -17.5 22.5 -26.5
s15.167 -17.167 24.5 -24.5c10 -8.66699 20.333 -16.834 31 -24.501l32 -23.5c6 -4.66699 9 -10 9 -16zM701 165c0 -24 -4.34668 -46.6738 -13.0137 -68.0068s-20.5 -40.166 -35.5 -56.499s-33 -29.333 -54 -39s-43.5 -14.5 -67.5 -14.5c-36.667 0 -65.5 10 -86.5 30
s-36.667 44.5 -47 73.5s-16.833 60.333 -19.5 94s-4 63.834 -4 90.501c0 19.333 0.666992 38.833 2 58.5l4 58.5c-16.667 4 -33.167 8.66699 -49.5 14s-33.166 9.66602 -50.499 12.999c0 -26 0.166992 -54.667 0.5 -86s-0.666992 -63 -3 -95s-7 -63.167 -14 -93.5
s-18 -57.166 -33 -80.499s-34.833 -42 -59.5 -56s-56 -21 -94 -21c-10 0 -20.667 1.33301 -32 4s-21.833 6.66699 -31.5 12s-17.667 12.166 -24 20.499s-9.5 18.5 -9.5 30.5c0 16 6.16699 29.667 18.5 41s26.5 17 42.5 17c13.333 0 20 -6.66699 20 -20
c0 -7.33301 -2 -12.333 -6 -15s-8.5 -4.66699 -13.5 -6s-9.66699 -3 -14 -5s-6.5 -6 -6.5 -12c0 -5.33301 2.16699 -9.83301 6.5 -13.5s9.5 -6.5 15.5 -8.5s12.167 -3.33301 18.5 -4s11.5 -1 15.5 -1c38.667 0 68.834 9.66699 90.501 29s37.834 43.5 48.501 72.5
s17.167 60.333 19.5 94s3.5 64.834 3.5 93.501v108h-10c-8 0 -15.667 -1.33301 -23 -4s-13.833 -5.5 -19.5 -8.5s-10.667 -5.83301 -15 -8.5s-7.83301 -4 -10.5 -4c-5.33301 0 -10.166 2.16699 -14.499 6.5s-6.5 9.16602 -6.5 14.499s2.33301 10.333 7 15
c12.667 11.333 27 19.333 43 24s32.333 6.33398 49 5.00098c0 25.333 0.666992 50.333 2 75s2 49.667 2 75c0 16 1.66699 34.167 5 54.5s9.16602 39.333 17.499 57s19.333 32.667 33 45s30.5 18.5 50.5 18.5c21.333 0 37.666 -6.5 48.999 -19.5s19.666 -28.833 24.999 -47.5
s8.5 -38.167 9.5 -58.5s1.5 -38.166 1.5 -53.499c0 -31.333 -1.16699 -62.333 -3.5 -93s-4.83301 -61.334 -7.5 -92.001c4.66699 -0.666992 9.33398 -1.16699 14.001 -1.5s9.33398 -0.5 14.001 -0.5c8.66699 0 16.5 2 23.5 6s13.167 8.16699 18.5 12.5l15 12.5
c4.66699 4 9.33398 6 14.001 6c5.33301 0 10 -2.16699 14 -6.5s6 -9.16602 6 -14.499s-2 -10 -6 -14c-11.333 -11.333 -24.166 -21.166 -38.499 -29.499s-29.833 -12.5 -46.5 -12.5c-5.33301 0 -10.666 0.166992 -15.999 0.5s-10.666 0.833008 -15.999 1.5
c-1.33301 -19.333 -2.33301 -38.833 -3 -58.5s-1 -39.167 -1 -58.5c0 -20 0.666992 -43.833 2 -71.5s5.66602 -54 12.999 -79s18.833 -46.333 34.5 -64s37.834 -26.5 66.501 -26.5c18.667 0 35.834 3.83301 51.501 11.5s29.334 17.834 41.001 30.501
s20.667 27.334 27 44.001s9.5 34 9.5 52c0 12.667 -4.16699 24.334 -12.5 35.001s-19.166 16 -32.499 16c-9.33301 0 -15.666 -2.33301 -18.999 -7s-5.66602 -9.66699 -6.99902 -15s-3.16602 -10.333 -5.49902 -15s-7.5 -7 -15.5 -7c-5.33301 0 -10.166 1.83301 -14.499 5.5
s-6.5 8.5 -6.5 14.5c0 18.667 6.83301 34.167 20.5 46.5s29.5 18.5 47.5 18.5c12.667 0 24.167 -2.5 34.5 -7.5s19.333 -11.833 27 -20.5s13.667 -18.5 18 -29.5s6.5 -22.5 6.5 -34.5zM392.986 617.993c0 7.33301 -0.167969 18.334 -0.500977 33.001
s-1.83301 29.167 -4.5 43.5s-7 26.833 -13 37.5s-14.667 16 -26 16c-13.333 0 -24.166 -5.16699 -32.499 -15.5s-15 -22.666 -20 -36.999s-8.33301 -29 -10 -44s-2.5 -27.5 -2.5 -37.5c0 -25.333 -0.666992 -51 -2 -77s-2 -52 -2 -78c17.333 -3.33301 34.5 -7.5 51.5 -12.5
s34.167 -9.5 51.5 -13.5c2.66699 31.333 5 62.166 7 92.499s3 61.166 3 92.499z" />
    <glyph glyph-name="Aacute" unicode="&#xc1;" horiz-adv-x="733" 
d="M421 911c0 -3.33301 -2.83105 -8.83203 -8.49805 -16.499s-12.834 -16 -21.501 -25s-18.334 -18.333 -29.001 -28s-21 -18.5 -31 -26.5s-19 -14.5 -27 -19.5s-14 -7.5 -18 -7.5c-5.33301 0 -10.166 2.16699 -14.499 6.5s-6.5 9.16602 -6.5 14.499c0 6 3 11.333 9 16
l45 34.5c14.667 11 28.667 23.5 42 37.5l17.5 21c7 8.66699 14.167 13 21.5 13c5.33301 0 10.166 -2 14.499 -6s6.5 -8.66699 6.5 -14zM701.002 165.001c0 -24 -4.34668 -46.6699 -13.0137 -68.0029s-20.5 -40.166 -35.5 -56.499s-33 -29.333 -54 -39
s-43.5 -14.5 -67.5 -14.5c-36.667 0 -65.5 9.83301 -86.5 29.5s-36.833 44.167 -47.5 73.5s-17.167 60.666 -19.5 93.999s-3.5 63.666 -3.5 90.999c0 19.333 0.666992 38.833 2 58.5l4 58.5c-16.667 4 -33.167 8.66699 -49.5 14s-33.166 9.66602 -50.499 12.999
c0 -26 0.166992 -54.667 0.5 -86s-0.666992 -63 -3 -95s-7 -63.167 -14 -93.5s-18 -57.166 -33 -80.499s-34.833 -42 -59.5 -56s-56 -21 -94 -21c-10 0 -20.667 1.33301 -32 4s-21.833 6.66699 -31.5 12s-17.667 12.166 -24 20.499s-9.5 18.5 -9.5 30.5
c0 16.667 6.16699 30.5 18.5 41.5s26.5 16.5 42.5 16.5c13.333 0 20 -6.66699 20 -20c0 -7.33301 -2 -12.333 -6 -15s-8.5 -4.66699 -13.5 -6s-9.66699 -3 -14 -5s-6.5 -6 -6.5 -12c0 -5.33301 2.16699 -9.83301 6.5 -13.5s9.5 -6.5 15.5 -8.5s12.167 -3.33301 18.5 -4
s11.5 -1 15.5 -1c38.667 0 68.834 9.66699 90.501 29s37.834 43.5 48.501 72.5s17.167 60.333 19.5 94s3.5 64.834 3.5 93.501v108h-10c-8.66699 0 -16.667 -1.33301 -24 -4s-13.666 -5.5 -18.999 -8.5s-10 -5.83301 -14 -8.5s-7.66699 -4 -11 -4
c-5.33301 0 -10.166 2.16699 -14.499 6.5s-6.5 9.16602 -6.5 14.499c0 3.33301 0.833008 6.16602 2.5 8.49902s3.5 4.5 5.5 6.5c12.667 11.333 26.667 19.333 42 24s31.666 6.33398 48.999 5.00098c0 25.333 0.666992 50.333 2 75s2 49.667 2 75c0 16 1.66699 34.167 5 54.5
s9.16602 39.333 17.499 57s19.333 32.667 33 45s30.5 18.5 50.5 18.5c21.333 0 37.666 -6.5 48.999 -19.5s19.666 -28.833 24.999 -47.5s8.5 -38.167 9.5 -58.5s1.5 -38.166 1.5 -53.499c0 -31.333 -1.16699 -62.333 -3.5 -93s-4.83301 -61.334 -7.5 -92.001
c4.66699 -0.666992 9.33398 -1.16699 14.001 -1.5s9.33398 -0.5 14.001 -0.5c8.66699 0 16.5 2 23.5 6s13.167 8.16699 18.5 12.5l15 12.5c4.66699 4 9.33398 6 14.001 6c5.33301 0 10 -2.16699 14 -6.5s6 -9.16602 6 -14.499s-2 -10 -6 -14
c-11.333 -11.333 -24.166 -21.166 -38.499 -29.499s-29.833 -12.5 -46.5 -12.5c-5.33301 0 -10.666 0.166992 -15.999 0.5s-10.666 0.833008 -15.999 1.5c-1.33301 -19.333 -2.33301 -38.833 -3 -58.5s-1 -39.167 -1 -58.5c0 -20 0.666992 -43.833 2 -71.5
s5.66602 -54 12.999 -79s18.833 -46.333 34.5 -64s37.834 -26.5 66.501 -26.5c18.667 0 35.834 3.83301 51.501 11.5s29.334 17.834 41.001 30.501s20.667 27.334 27 44.001s9.5 34 9.5 52c0 12.667 -4.16699 24.334 -12.5 35.001s-19.166 16 -32.499 16
c-9.33301 0 -15.666 -2.33301 -18.999 -7s-5.66602 -9.66699 -6.99902 -15s-3.16602 -10.333 -5.49902 -15s-7.5 -7 -15.5 -7c-5.33301 0 -10.166 1.83301 -14.499 5.5s-6.5 8.5 -6.5 14.5c0 18.667 6.83301 34.167 20.5 46.5s29.5 18.5 47.5 18.5
c12.667 0 24.167 -2.5 34.5 -7.5s19.333 -11.833 27 -20.5s13.667 -18.5 18 -29.5s6.5 -22.5 6.5 -34.5zM392.988 617.998c0 7.33301 -0.167969 18.334 -0.500977 33.001s-1.83301 29.167 -4.5 43.5s-7 26.833 -13 37.5s-14.667 16 -26 16
c-13.333 0 -24.166 -5.16699 -32.499 -15.5s-15 -22.666 -20 -36.999s-8.33301 -29 -10 -44s-2.5 -27.5 -2.5 -37.5c0 -25.333 -0.666992 -51 -2 -77s-2 -52 -2 -78c17.333 -3.33301 34.5 -7.5 51.5 -12.5s34.167 -9.5 51.5 -13.5c2.66699 31.333 5 62.166 7 92.499
s3 61.166 3 92.499z" />
    <glyph glyph-name="Acircumflex" unicode="&#xc2;" horiz-adv-x="780" 
d="M483 815c0 -5.33301 -2.00098 -9.99805 -6.00098 -13.998s-8.66699 -6 -14 -6c-4.66699 0 -11.667 4.83301 -21 14.5s-18.666 20.167 -27.999 31.5l-25.5 32c-7.66699 10 -12.5 15.333 -14.5 16c-2 -4 -7.33301 -11.167 -16 -21.5s-18 -20.833 -28 -31.5
s-19.5 -20.167 -28.5 -28.5s-15.167 -12.5 -18.5 -12.5c-5.33301 0 -10.166 2 -14.499 6s-6.5 8.66699 -6.5 14c0 6.66699 3.83301 13.834 11.5 21.501s13.834 13.5 18.501 17.5c8 7.33301 15.5 15.166 22.5 23.499s13.833 17.166 20.5 26.499
c4 5.33301 9.66699 12.333 17 21s14.666 13 21.999 13c3.33301 0 7.66602 -2 12.999 -6c8.66699 -8 16 -16.833 22 -26.5s12.667 -18.834 20 -27.501c7.33301 -9.33301 15.5 -17.833 24.5 -25.5s17.167 -16.167 24.5 -25.5c3.33301 -3.33301 5 -7.33301 5 -12z
M747.999 160.002c0 -3.33301 -0.998047 -6.66895 -2.99805 -10.002c-9.33301 -19.333 -19.333 -38.666 -30 -57.999s-23.167 -36.833 -37.5 -52.5s-30.666 -28.334 -48.999 -38.001s-39.833 -14.5 -64.5 -14.5c-36.667 0 -65.5 10 -86.5 30s-36.667 44.5 -47 73.5
s-16.833 60.333 -19.5 94s-4 63.834 -4 90.501c0 15.333 0.333008 30.5 1 45.5s1.66699 30.167 3 45.5l-46.5 12.5c-15.667 4.33301 -31.167 8.16602 -46.5 11.499v-117c0 -34 -1.5 -68 -4.5 -102s-10.667 -64.667 -23 -92s-30.833 -49.5 -55.5 -66.5
s-58.667 -25.5 -102 -25.5c-21.333 0 -41.333 4 -60 12s-34.834 18.833 -48.501 32.5s-24.5 29.834 -32.5 48.501s-12 38.667 -12 60c0 16 3.16699 31.167 9.5 45.5s14.666 26.833 24.999 37.5s22.666 19.167 36.999 25.5s29.5 9.5 45.5 9.5c10.667 0 21 -1.83301 31 -5.5
s19 -9 27 -16s14.333 -15.167 19 -24.5s7 -19.666 7 -30.999c0 -5.33301 -2 -10 -6 -14s-8.66699 -6 -14 -6c-6 0 -10.167 1 -12.5 3s-4 4.5 -5 7.5s-1.83301 6.33301 -2.5 10s-1.66699 7.16699 -3 10.5c-8 16.667 -21.667 25 -41 25c-21.333 0 -39.333 -7.66699 -54 -23
s-22 -33.333 -22 -54c0 -16 2.83301 -30.833 8.5 -44.5s13.5 -25.5 23.5 -35.5s21.833 -18 35.5 -24s28.5 -9 44.5 -9c22 0 40.667 2.66699 56 8s28.166 13.166 38.499 23.499s18.666 23.333 24.999 39s11.5 33.834 15.5 54.501c4 20 6.5 40.167 7.5 60.5s1.5 40.5 1.5 60.5
v123c-1.33301 0 -2.83301 0.166992 -4.5 0.5s-3.16699 0.5 -4.5 0.5c-7.33301 0 -14.833 -1.33301 -22.5 -4s-15 -5.66699 -22 -9l-18.5 -9c-5.33301 -2.66699 -9 -4 -11 -4c-5.33301 0 -10.166 2.16699 -14.499 6.5s-6.5 9.16602 -6.5 14.499s2.33301 10.333 7 15
c12.667 11.333 27.834 19.166 45.501 23.499s34.834 6.16602 51.501 5.49902c0 30 -0.166992 59.667 -0.5 89s-0.5 59 -0.5 89c0 16 1.66699 34.167 5 54.5s9 39.333 17 57s18.833 32.667 32.5 45s30.834 18.5 51.501 18.5c21.333 0 37.666 -6.5 48.999 -19.5
s19.666 -28.833 24.999 -47.5s8.5 -38.167 9.5 -58.5s1.5 -38.166 1.5 -53.499c0 -36 -1.33301 -71.5 -4 -106.5l-8 -106.5c5.33301 -0.666992 10 -1 14 -1h15c8.66699 0 16.334 1.83301 23.001 5.5s12.834 7.83398 18.501 12.501s11 8.83398 16 12.501s9.5 5.5 13.5 5.5
c5.33301 0 10 -2 14 -6s6 -8.66699 6 -14c0 -4 -2 -8.66699 -6 -14c-10.667 -11.333 -23.5 -21.5 -38.5 -30.5s-30.5 -13.5 -46.5 -13.5c-10.667 0 -21.667 1 -33 3c-2 -30 -3 -59.667 -3 -89c0 -20 0.666992 -43.833 2 -71.5s5.66602 -54 12.999 -79
s18.833 -46.333 34.5 -64s37.834 -26.5 66.501 -26.5c27.333 0 49.666 8 66.999 24s31.666 33.5 42.999 52.5s21 36.5 29 52.5s16.333 24 25 24c5.33301 0 10 -2 14 -6s6 -8.66699 6 -14zM426.001 618.999c0 8 -0.166992 19.166 -0.5 33.499s-1.83301 28.5 -4.5 42.5
s-7 26.333 -13 37s-14.667 16 -26 16c-13.333 0 -24.166 -5.16699 -32.499 -15.5s-15 -22.666 -20 -36.999s-8.33301 -29 -10 -44s-2.5 -27.5 -2.5 -37.5c0 -30.667 0.166992 -61.167 0.5 -91.5s0.5 -60.833 0.5 -91.5c16 -3.33301 32 -7.5 48 -12.5s32 -9.5 48 -13.5
c3.33301 36 6.16602 71.667 8.49902 107s3.5 71 3.5 107z" />
    <glyph glyph-name="Atilde" unicode="&#xc3;" horiz-adv-x="733" 
d="M485 877c0 -4.66699 -3.5 -10.8311 -10.5 -18.498s-15.167 -15 -24.5 -22s-18.5 -13.167 -27.5 -18.5s-15.833 -8 -20.5 -8c-15.333 0 -28.333 4 -39 12s-19.667 16.833 -27 26.5l-20 26.5c-6 8 -12.333 12 -19 12c-4 0 -8.66699 -2.83301 -14 -8.5
s-10.833 -11.834 -16.5 -18.501s-11.5 -12.834 -17.5 -18.501s-11.333 -8.5 -16 -8.5c-5.33301 0 -10.333 2.16699 -15 6.5s-7 9.16602 -7 14.499s3.5 12.166 10.5 20.499s15.167 16.333 24.5 24s18.833 14.334 28.5 20.001s17.167 8.5 22.5 8.5
c14 0 25.5 -3.83301 34.5 -11.5s17 -16.167 24 -25.5s13.833 -18 20.5 -26s14.667 -12.333 24 -13c3.33301 2 8 5.5 14 10.5l19.5 16c7 5.66699 13.5 10.5 19.5 14.5s10 6 12 6c5.33301 0 10 -2.16699 14 -6.5s6 -9.16602 6 -14.499zM701 165.003
c0 -24 -4.34668 -46.6699 -13.0137 -68.0029s-20.5 -40.166 -35.5 -56.499s-33 -29.333 -54 -39s-43.5 -14.5 -67.5 -14.5c-36.667 0 -65.5 9.83301 -86.5 29.5s-36.833 44.167 -47.5 73.5s-17.167 60.666 -19.5 93.999s-3.5 63.666 -3.5 90.999
c0 19.333 0.666992 38.833 2 58.5l4 58.5c-16.667 4 -33.167 8.66699 -49.5 14s-33.166 9.66602 -50.499 12.999c0 -26 0.166992 -54.667 0.5 -86s-0.666992 -63 -3 -95s-7 -63.167 -14 -93.5s-18 -57.166 -33 -80.499s-34.833 -42 -59.5 -56s-56 -21 -94 -21
c-10 0 -20.667 1.33301 -32 4s-21.833 6.66699 -31.5 12s-17.667 12.166 -24 20.499s-9.5 18.5 -9.5 30.5c0 16.667 6.16699 30.5 18.5 41.5s26.5 16.5 42.5 16.5c13.333 0 20 -6.66699 20 -20c0 -7.33301 -2 -12.333 -6 -15s-8.5 -4.66699 -13.5 -6s-9.66699 -3 -14 -5
s-6.5 -6 -6.5 -12c0 -5.33301 2.16699 -9.83301 6.5 -13.5s9.5 -6.5 15.5 -8.5s12.167 -3.33301 18.5 -4s11.5 -1 15.5 -1c38.667 0 68.834 9.66699 90.501 29s37.834 43.5 48.501 72.5s17.167 60.333 19.5 94s3.5 64.834 3.5 93.501v108h-10
c-8.66699 0 -16.667 -1.33301 -24 -4s-13.666 -5.5 -18.999 -8.5s-10 -5.83301 -14 -8.5s-7.66699 -4 -11 -4c-5.33301 0 -10.166 2.16699 -14.499 6.5s-6.5 9.16602 -6.5 14.499c0 3.33301 0.833008 6.16602 2.5 8.49902s3.5 4.5 5.5 6.5
c12.667 11.333 26.667 19.333 42 24s31.666 6.33398 48.999 5.00098c0 25.333 0.666992 50.333 2 75s2 49.667 2 75c0 16 1.66699 34.167 5 54.5s9.16602 39.333 17.499 57s19.333 32.667 33 45s30.5 18.5 50.5 18.5c21.333 0 37.666 -6.5 48.999 -19.5
s19.666 -28.833 24.999 -47.5s8.5 -38.167 9.5 -58.5s1.5 -38.166 1.5 -53.499c0 -31.333 -1.16699 -62.333 -3.5 -93s-4.83301 -61.334 -7.5 -92.001c4.66699 -0.666992 9.33398 -1.16699 14.001 -1.5s9.33398 -0.5 14.001 -0.5c8.66699 0 16.5 2 23.5 6
s13.167 8.16699 18.5 12.5l15 12.5c4.66699 4 9.33398 6 14.001 6c5.33301 0 10 -2.16699 14 -6.5s6 -9.16602 6 -14.499s-2 -10 -6 -14c-11.333 -11.333 -24.166 -21.166 -38.499 -29.499s-29.833 -12.5 -46.5 -12.5c-5.33301 0 -10.666 0.166992 -15.999 0.5
s-10.666 0.833008 -15.999 1.5c-1.33301 -19.333 -2.33301 -38.833 -3 -58.5s-1 -39.167 -1 -58.5c0 -20 0.666992 -43.833 2 -71.5s5.66602 -54 12.999 -79s18.833 -46.333 34.5 -64s37.834 -26.5 66.501 -26.5c18.667 0 35.834 3.83301 51.501 11.5
s29.334 17.834 41.001 30.501s20.667 27.334 27 44.001s9.5 34 9.5 52c0 12.667 -4.16699 24.334 -12.5 35.001s-19.166 16 -32.499 16c-9.33301 0 -15.666 -2.33301 -18.999 -7s-5.66602 -9.66699 -6.99902 -15s-3.16602 -10.333 -5.49902 -15s-7.5 -7 -15.5 -7
c-5.33301 0 -10.166 1.83301 -14.499 5.5s-6.5 8.5 -6.5 14.5c0 18.667 6.83301 34.167 20.5 46.5s29.5 18.5 47.5 18.5c12.667 0 24.167 -2.5 34.5 -7.5s19.333 -11.833 27 -20.5s13.667 -18.5 18 -29.5s6.5 -22.5 6.5 -34.5zM392.986 618
c0 7.33301 -0.167969 18.334 -0.500977 33.001s-1.83301 29.167 -4.5 43.5s-7 26.833 -13 37.5s-14.667 16 -26 16c-13.333 0 -24.166 -5.16699 -32.499 -15.5s-15 -22.666 -20 -36.999s-8.33301 -29 -10 -44s-2.5 -27.5 -2.5 -37.5c0 -25.333 -0.666992 -51 -2 -77
s-2 -52 -2 -78c17.333 -3.33301 34.5 -7.5 51.5 -12.5s34.167 -9.5 51.5 -13.5c2.66699 31.333 5 62.166 7 92.499s3 61.166 3 92.499z" />
    <glyph glyph-name="Adieresis" unicode="&#xc4;" horiz-adv-x="733" 
d="M450 845c0 -12 -4.33301 -22.5 -13 -31.5s-19 -13.5 -31 -13.5s-22.5 4.5 -31.5 13.5s-13.5 19.5 -13.5 31.5s4.5 22.333 13.5 31s19.5 13 31.5 13s22.333 -4.33301 31 -13s13 -19 13 -31zM338 845c0 -12 -4.33301 -22.5 -13 -31.5s-19 -13.5 -31 -13.5
s-22.667 4.5 -32 13.5s-14 19.5 -14 31.5s4.66699 22.333 14 31s20 13 32 13s22.333 -4.33301 31 -13s13 -19 13 -31zM701 165c0 -24 -4.34668 -46.6729 -13.0137 -68.0059s-20.5 -40.166 -35.5 -56.499s-33 -29.333 -54 -39s-43.5 -14.5 -67.5 -14.5
c-36.667 0 -65.5 9.83301 -86.5 29.5s-36.667 44.167 -47 73.5s-16.833 60.666 -19.5 93.999s-4 63.666 -4 90.999c0 19.333 0.666992 38.833 2 58.5l4 58.5c-16.667 4 -33.167 8.5 -49.5 13.5s-33.166 9.16699 -50.499 12.5c0 -26 0.166992 -54.667 0.5 -86
s-0.666992 -63 -3 -95s-7 -63 -14 -93s-18 -56.667 -33 -80s-34.833 -42 -59.5 -56s-56 -21 -94 -21c-10 0 -20.667 1.33301 -32 4s-21.833 6.66699 -31.5 12s-17.667 12.166 -24 20.499s-9.5 18.5 -9.5 30.5c0 16.667 6.16699 30.5 18.5 41.5s26.5 16.5 42.5 16.5
c13.333 0 20 -6.66699 20 -20c0 -7.33301 -2 -12.333 -6 -15s-8.5 -4.66699 -13.5 -6s-9.66699 -3 -14 -5s-6.5 -6 -6.5 -12c0 -5.33301 2.16699 -9.83301 6.5 -13.5s9.5 -6.5 15.5 -8.5s12.167 -3.33301 18.5 -4s11.5 -1 15.5 -1c38.667 0 68.834 9.66699 90.501 29
s37.834 43.5 48.501 72.5s17.167 60.333 19.5 94s3.5 64.834 3.5 93.501v107c-1.33301 0 -2.83301 0.166992 -4.5 0.5s-3.5 0.5 -5.5 0.5c-8.66699 0 -16.667 -1.33301 -24 -4s-13.666 -5.5 -18.999 -8.5s-10 -5.83301 -14 -8.5s-7.66699 -4 -11 -4
c-5.33301 0 -10.166 2 -14.499 6s-6.5 8.66699 -6.5 14c0 3.33301 0.833008 6.33301 2.5 9s3.5 5 5.5 7c12.667 11.333 26.667 19.333 42 24s31.666 6.33398 48.999 5.00098c0 25.333 0.666992 50.166 2 74.499s2 49.166 2 74.499c0 16 1.66699 34.167 5 54.5
s9.16602 39.5 17.499 57.5s19.333 33.167 33 45.5s30.5 18.5 50.5 18.5c21.333 0 37.666 -6.5 48.999 -19.5s19.666 -29 24.999 -48s8.5 -38.667 9.5 -59s1.5 -38.166 1.5 -53.499c0 -31.333 -1.16699 -62.166 -3.5 -92.499s-4.83301 -60.833 -7.5 -91.5
c4.66699 -0.666992 9.33398 -1.16699 14.001 -1.5s9.33398 -0.5 14.001 -0.5c8.66699 0 16.5 2 23.5 6s13.167 8.16699 18.5 12.5l15 12.5c4.66699 4 9.33398 6 14.001 6c5.33301 0 10 -2.16699 14 -6.5s6 -9.16602 6 -14.499s-2 -10 -6 -14
c-11.333 -11.333 -24.166 -21.333 -38.499 -30s-29.833 -13 -46.5 -13c-5.33301 0 -10.666 0.166992 -15.999 0.5s-10.666 0.833008 -15.999 1.5c-1.33301 -19.333 -2.33301 -38.666 -3 -57.999s-1 -38.666 -1 -57.999c0 -20 0.666992 -43.833 2 -71.5
s5.66602 -54 12.999 -79s18.833 -46.333 34.5 -64s37.834 -26.5 66.501 -26.5c18.667 0 35.834 3.83301 51.501 11.5s29.334 17.834 41.001 30.501s20.667 27.334 27 44.001s9.5 34 9.5 52c0 12.667 -4.16699 24.334 -12.5 35.001s-19.166 16 -32.499 16
c-9.33301 0 -15.666 -2.33301 -18.999 -7s-5.66602 -9.66699 -6.99902 -15s-3.16602 -10.333 -5.49902 -15s-7.5 -7 -15.5 -7c-5.33301 0 -10.166 1.83301 -14.499 5.5s-6.5 8.5 -6.5 14.5c0 18.667 6.83301 34.167 20.5 46.5s29.5 18.5 47.5 18.5
c12.667 0 24.167 -2.5 34.5 -7.5s19.333 -11.833 27 -20.5s13.667 -18.5 18 -29.5s6.5 -22.5 6.5 -34.5zM392.986 617.994c0 7.33301 -0.167969 18.166 -0.500977 32.499s-1.83301 28.666 -4.5 42.999s-7 26.833 -13 37.5s-14.667 16 -26 16
c-13.333 0 -24.166 -5.16699 -32.499 -15.5s-15 -22.666 -20 -36.999s-8.33301 -29 -10 -44s-2.5 -27.5 -2.5 -37.5c0 -25.333 -0.666992 -50.833 -2 -76.5s-2 -51.5 -2 -77.5c17.333 -3.33301 34.5 -7.66602 51.5 -12.999s34.167 -10 51.5 -14
c2.66699 31.333 5 62.333 7 93s3 61.667 3 93z" />
    <glyph glyph-name="Aring" unicode="&#xc5;" horiz-adv-x="733" 
d="M414 865c0 -18 -6.83301 -32.833 -20.5 -44.5s-29.167 -17.5 -46.5 -17.5s-32.833 5.83301 -46.5 17.5s-20.5 26.5 -20.5 44.5s6.83301 32.667 20.5 44s29.167 17 46.5 17s32.833 -5.66699 46.5 -17s20.5 -26 20.5 -44zM701 164
c0 -24 -4.34668 -46.6699 -13.0137 -68.0029s-20.5 -40 -35.5 -56s-33 -28.833 -54 -38.5s-43.5 -14.5 -67.5 -14.5c-36.667 0 -65.5 9.83301 -86.5 29.5s-36.667 44 -47 73s-16.833 60.167 -19.5 93.5s-4 63.666 -4 90.999c0 19.333 0.666992 38.833 2 58.5l4 58.5
c-16.667 4 -33.167 8.5 -49.5 13.5s-33.166 9.16699 -50.499 12.5c0 -26 0.166992 -54.667 0.5 -86s-0.666992 -63 -3 -95s-7 -62.833 -14 -92.5s-18 -56.167 -33 -79.5s-34.833 -42 -59.5 -56s-56 -21 -94 -21c-10 0 -20.667 1.33301 -32 4s-21.833 6.66699 -31.5 12
s-17.667 12.166 -24 20.499s-9.5 18.5 -9.5 30.5c0 16.667 6.16699 30.5 18.5 41.5s26.5 16.5 42.5 16.5c13.333 0 20 -6.66699 20 -20c0 -7.33301 -2 -12.333 -6 -15s-8.5 -4.66699 -13.5 -6s-9.66699 -3 -14 -5s-6.5 -6 -6.5 -12c0 -5.33301 2.16699 -9.83301 6.5 -13.5
s9.5 -6.5 15.5 -8.5s12.167 -3.33301 18.5 -4s11.5 -1 15.5 -1c38.667 0 68.834 9.66699 90.501 29s37.834 43.333 48.501 72s17.167 59.834 19.5 93.501s3.5 64.834 3.5 93.501v107c-1.33301 0 -2.83301 0.166992 -4.5 0.5s-3.5 0.5 -5.5 0.5
c-8.66699 0 -16.667 -1.33301 -24 -4s-13.666 -5.5 -18.999 -8.5s-10 -5.83301 -14 -8.5s-7.66699 -4 -11 -4c-5.33301 0 -10.166 2 -14.499 6s-6.5 8.66699 -6.5 14c0 3.33301 0.833008 6.33301 2.5 9s3.5 5 5.5 7c12.667 11.333 26.667 19.333 42 24
s31.666 6.33398 48.999 5.00098c0 25.333 0.666992 50.166 2 74.499s2 49.166 2 74.499c0 16 1.66699 34.167 5 54.5s9.16602 39.333 17.499 57s19.333 32.667 33 45s30.5 18.5 50.5 18.5c21.333 0 37.666 -6.5 48.999 -19.5s19.666 -28.833 24.999 -47.5
s8.5 -38.167 9.5 -58.5s1.5 -38.166 1.5 -53.499c0 -31.333 -1.16699 -62.166 -3.5 -92.499s-4.83301 -60.833 -7.5 -91.5c4.66699 -0.666992 9.33398 -1.16699 14.001 -1.5s9.33398 -0.5 14.001 -0.5c8.66699 0 16.5 2 23.5 6s13.167 8.16699 18.5 12.5l15 12.5
c4.66699 4 9.33398 6 14.001 6c5.33301 0 10 -2.16699 14 -6.5s6 -9.16602 6 -14.499s-2 -10 -6 -14c-11.333 -11.333 -24.166 -21.166 -38.499 -29.499s-29.833 -12.5 -46.5 -12.5c-5.33301 0 -10.666 0.166992 -15.999 0.5s-10.666 0.833008 -15.999 1.5
c-1.33301 -19.333 -2.33301 -38.833 -3 -58.5s-1 -39.167 -1 -58.5c0 -20 0.666992 -43.833 2 -71.5s5.66602 -54 12.999 -79s18.833 -46.167 34.5 -63.5s37.834 -26 66.501 -26c18.667 0 35.834 3.83301 51.501 11.5s29.334 17.667 41.001 30s20.667 26.833 27 43.5
s9.5 34 9.5 52c0 12.667 -4.16699 24.5 -12.5 35.5s-19.166 16.5 -32.499 16.5c-9.33301 0 -15.666 -2.33301 -18.999 -7s-5.66602 -9.66699 -6.99902 -15s-3.16602 -10.333 -5.49902 -15s-7.5 -7 -15.5 -7c-5.33301 0 -10.166 1.83301 -14.499 5.5s-6.5 8.5 -6.5 14.5
c0 18.667 6.83301 34 20.5 46s29.5 18 47.5 18c12.667 0 24.167 -2.5 34.5 -7.5s19.333 -11.833 27 -20.5s13.667 -18.5 18 -29.5s6.5 -22.5 6.5 -34.5zM380.986 864.997c0 9.33301 -3.49805 16.833 -10.498 22.5s-14.833 8.5 -23.5 8.5s-16.334 -2.83301 -23.001 -8.5
s-10 -13.167 -10 -22.5s3.16699 -17 9.5 -23s14.166 -9 23.499 -9s17.333 3 24 9s10 13.667 10 23zM392.988 616.997c0 7.33301 -0.167969 18.1689 -0.500977 32.502s-1.83301 28.666 -4.5 42.999s-7 26.833 -13 37.5s-14.667 16 -26 16
c-13.333 0 -24.166 -5.16699 -32.499 -15.5s-15 -22.666 -20 -36.999s-8.33301 -29 -10 -44s-2.5 -27.5 -2.5 -37.5c0 -25.333 -0.666992 -51 -2 -77s-2 -51.667 -2 -77c17.333 -3.33301 34.5 -7.5 51.5 -12.5s34.167 -9.5 51.5 -13.5c2.66699 31.333 5 62.166 7 92.499
s3 61.166 3 92.499z" />
    <glyph glyph-name="AE" unicode="&#xc6;" horiz-adv-x="848" 
d="M844 164c0 -24.667 -5.83105 -47.8369 -17.498 -69.5039s-26.667 -40.5 -45 -56.5s-39.166 -28.667 -62.499 -38s-47 -14 -71 -14c-38.667 0 -74.167 7.5 -106.5 22.5s-60.333 35.333 -84 61s-42.667 55.5 -57 89.5s-22.833 69.667 -25.5 107c-0.666992 8 -1 16 -1 24v25
c0 10.667 0.333008 21.167 1 31.5s1.66699 20.833 3 31.5c-10 1.33301 -20 3 -30 5l-30 6v-117c0 -33.333 -1.66699 -67 -5 -101s-11.166 -64.667 -23.499 -92s-30.833 -49.5 -55.5 -66.5s-58.667 -25.5 -102 -25.5c-21.333 0 -41.333 4 -60 12s-34.834 18.833 -48.501 32.5
s-24.334 29.834 -32.001 48.501s-11.5 38.667 -11.5 60c0 16 3 31.167 9 45.5s14.333 26.666 25 36.999s23 18.666 37 24.999s29 9.5 45 9.5c10.667 0 21.167 -1.83301 31.5 -5.5s19.5 -8.83398 27.5 -15.501s14.333 -14.667 19 -24s7 -19.666 7 -30.999
c0 -6 -2.16699 -10.833 -6.5 -14.5s-9.16602 -5.5 -14.499 -5.5s-10 1.83301 -14 5.5s-6 8.5 -6 14.5c0 11.333 -4.83301 20.166 -14.5 26.499s-19.5 9.5 -29.5 9.5c-21.333 0 -39.166 -7.5 -53.499 -22.5s-21.5 -33.167 -21.5 -54.5c0 -16 2.83301 -30.833 8.5 -44.5
s13.334 -25.5 23.001 -35.5s21.334 -18 35.001 -24s28.5 -9 44.5 -9c21.333 0 39.666 2.33301 54.999 7s28.166 11.834 38.499 21.501s18.833 22 25.5 37s12 32.5 16 52.5c5.33301 26 8.66602 52.5 9.99902 79.5s2 53.833 2 80.5c0 15.333 -0.333008 30.333 -1 45
s-1 29.667 -1 45h-13c-7.33301 0 -14.5 -1.16699 -21.5 -3.5s-13.5 -5 -19.5 -8s-11.333 -5.83301 -16 -8.5s-8.33398 -4 -11.001 -4c-5.33301 0 -10.166 2 -14.499 6s-6.5 8.66699 -6.5 14s2.33301 10.333 7 15c12.667 11.333 27.667 19.666 45 24.999s34.333 7 51 5v79
c0 12.667 -0.333008 24.834 -1 36.501s-1 23.834 -1 36.501c0 18 1 38.5 3 61.5s6.5 44.5 13.5 64.5s17.667 37 32 51s33.5 21 57.5 21c14 0 26.333 -3.5 37 -10.5s19.667 -15.833 27 -26.5s12.833 -22.5 16.5 -35.5s5.5 -25.5 5.5 -37.5c0 -40 -4.33301 -79 -13 -117
s-17 -76.333 -25 -115c22 29.333 48.333 52.333 79 69c-6.66699 14.667 -11.5 29.834 -14.5 45.501s-4.5 31.5 -4.5 47.5c0 26.667 7.33301 51.167 22 73.5s33 41.666 55 57.999s45.667 29 71 38s48.333 13.5 69 13.5c26 0 49 -7.66699 69 -23s30 -38 30 -68
c0 -18.667 -4.66699 -35.667 -14 -51s-21.166 -28.5 -35.499 -39.5s-30.333 -19.667 -48 -26s-34.834 -9.5 -51.501 -9.5c-5.33301 0 -10 1.83301 -14 5.5s-6 8.5 -6 14.5s2 10.833 6 14.5s8.66699 5.5 14 5.5c10.667 0 22.167 2.16699 34.5 6.5s24 10.333 35 18
s20.167 16.834 27.5 27.501s11 22 11 34c0 17.333 -6.16699 30 -18.5 38s-25.5 12 -39.5 12c-18 0 -37.167 -4 -57.5 -12s-39.333 -18.667 -57 -32s-32.334 -28.5 -44.001 -45.5s-17.5 -34.5 -17.5 -52.5c0 -27.333 5.33301 -52.666 16 -75.999
c17.333 6 34.666 10.333 51.999 13s35 4 53 4c10 0 21 -1.16699 33 -3.5s23.167 -6.16602 33.5 -11.499s19 -12.333 26 -21s10.5 -19.334 10.5 -32.001c0 -12 -3.66699 -22.333 -11 -31s-16.5 -15.5 -27.5 -20.5s-22.5 -8.66699 -34.5 -11s-23 -3.5 -33 -3.5
c-24.667 0 -47.167 5.83301 -67.5 17.5s-37.5 27.167 -51.5 46.5c-38 -21.333 -66.5 -50.333 -85.5 -87s-28.5 -76.334 -28.5 -119.001c0 -32 6.16699 -62.667 18.5 -92s29 -55.333 50 -78s45.667 -40.667 74 -54s58.5 -20 90.5 -20c18 0 36.167 3.5 54.5 10.5
s34.833 16.833 49.5 29.5s26.667 27.334 36 44.001s14 34.334 14 53.001c0 12.667 -4.33301 24.5 -13 35.5s-19 16.5 -31 16.5c-16.667 0 -28 -2 -34 -6s-9.83301 -8.33301 -11.5 -13s-2.83398 -9 -3.50098 -13s-4.33398 -6 -11.001 -6c-7.33301 0 -13.333 3 -18 9
s-7 12.333 -7 19c0 10 3.16699 18.333 9.5 25s14 11.834 23 15.501s18.333 6.16699 28 7.5s17.834 2 24.501 2c12 0 23.167 -2.5 33.5 -7.5s19.333 -11.833 27 -20.5s13.667 -18.5 18 -29.5s6.5 -22.5 6.5 -34.5zM714.002 478.997c0 6 -2.50098 10.834 -7.50098 14.501
s-10.833 6.5 -17.5 8.5s-13.5 3.33301 -20.5 4s-12.5 1 -16.5 1c-14 0 -28.167 -1 -42.5 -3s-28.166 -5.33301 -41.499 -10c10 -12.667 22 -22.667 36 -30s29 -11 45 -11c4 0 9.66699 0.333008 17 1s14.5 2 21.5 4s13.167 4.66699 18.5 8s8 7.66602 8 12.999z
M427.001 675.998c0 6 -0.830078 13.001 -2.49707 21.001s-4.33398 15.667 -8.00098 23s-8.33398 13.5 -14.001 18.5s-12.5 7.5 -20.5 7.5c-16 0 -28.333 -6.16699 -37 -18.5s-15 -27 -19 -44s-6.33301 -34.333 -7 -52s-1 -32.167 -1 -43.5
c0 -26.667 0.166992 -53.167 0.5 -79.5s0.5 -52.833 0.5 -79.5l32.5 -6c10.333 -2 21.166 -3.66699 32.499 -5c4 21.333 8.33301 42.666 13 63.999l14 64c4.66699 21.333 8.5 42.833 11.5 64.5s4.5 43.5 4.5 65.5z" />
    <glyph glyph-name="Ccedilla" unicode="&#xc7;" horiz-adv-x="576" 
d="M508 155c0 -24 -5.16602 -46.002 -15.499 -66.002s-23.833 -37.333 -40.5 -52s-35.667 -26.5 -57 -35.5s-43.333 -14.5 -66 -16.5c0 -15.333 -1 -31 -3 -47c9.33301 -0.666992 19.166 -3.16699 29.499 -7.5s19.833 -10 28.5 -17s15.834 -15 21.501 -24
s8.5 -18.833 8.5 -29.5s-2.83301 -20 -8.5 -28s-12.667 -14.667 -21 -20s-17.5 -9.33301 -27.5 -12s-19.667 -4 -29 -4c-18 0 -35.833 3.16699 -53.5 9.5s-30.5 18.5 -38.5 36.5c-0.666992 1.33301 -1 4 -1 8c0 5.33301 2 9.83301 6 13.5s8.66699 5.5 14 5.5
c6 0 10.167 -1.66699 12.5 -5s5.5 -7.16602 9.5 -11.499s9.66699 -8.16602 17 -11.499s18.666 -5 33.999 -5c3.33301 0 7.5 0.5 12.5 1.5s10 2.5 15 4.5s9.16699 4.5 12.5 7.5s5 6.5 5 10.5s-1.83301 8.33301 -5.5 13s-8.16699 8.66699 -13.5 12
s-10.833 6.16602 -16.5 8.49902s-10.5 3.5 -14.5 3.5s-8 -1.33301 -12 -4s-8.66699 -4 -14 -4s-9.66602 1.83301 -12.999 5.5s-5 8.16699 -5 13.5c0 2.66699 0.333008 4.66699 1 6c3.33301 11.333 5.33301 23 6 35l2 36c-36.667 4 -69.5 15.5 -98.5 34.5
s-53.5 42.667 -73.5 71s-35.167 59.666 -45.5 93.999s-15.5 68.5 -15.5 102.5c0 25.333 1 50.5 3 75.5s5.66699 49.833 11 74.5c-30 17.333 -52.333 41 -67 71s-22 62 -22 96c0 28 6.16699 53.5 18.5 76.5s28.5 42.667 48.5 59s42.667 28.833 68 37.5s51 13 77 13
c6 0 11 -1.83301 15 -5.5s6 -8.5 6 -14.5s-2 -10.833 -6 -14.5s-9 -5.5 -15 -5.5c-20.667 0 -41.167 -3.33301 -61.5 -10s-38.666 -16.334 -54.999 -29.001s-29.5 -28 -39.5 -46s-15 -38.333 -15 -61c0 -23.333 4.66699 -46.333 14 -69s23.666 -41.334 42.999 -56.001
c9.33301 35.333 22.666 71.333 39.999 108s38.5 70 63.5 100s54 54.667 87 74s70.167 29 111.5 29c14.667 0 27.834 -3.16699 39.501 -9.5s21.667 -14.5 30 -24.5s14.666 -21.5 18.999 -34.5s6.5 -26.167 6.5 -39.5c0 -41.333 -9.5 -78.666 -28.5 -111.999
s-43.5 -61.5 -73.5 -84.5s-64 -40.667 -102 -53s-76 -18.5 -114 -18.5c-8.66699 0 -17.167 0.333008 -25.5 1s-16.5 2.33398 -24.5 5.00098c-4 -22 -6.83301 -44 -8.5 -66s-2.5 -44.333 -2.5 -67c0 -31.333 4.83301 -62.666 14.5 -93.999s23.834 -59.5 42.501 -84.5
s41.5 -45.167 68.5 -60.5s57.833 -23 92.5 -23c18 0 36.167 3 54.5 9s34.833 14.667 49.5 26s26.5 25 35.5 41s13.5 34 13.5 54c0 14.667 -4.83301 28.167 -14.5 40.5s-22.167 18.5 -37.5 18.5c-12 0 -20.333 -2 -25 -6s-8 -8.5 -10 -13.5s-4 -9.5 -6 -13.5
s-6.66699 -6 -14 -6c-13.333 0 -20 6.66699 -20 20c0 10 2.33301 18.667 7 26s10.667 13.5 18 18.5s15.333 8.66699 24 11s17.334 3.5 26.001 3.5c13.333 0 25.666 -2.66699 36.999 -8s21.166 -12.666 29.499 -21.999s14.833 -19.833 19.5 -31.5s7 -24.167 7 -37.5z
M434.001 681.998c0 7.33301 -1.16602 15.001 -3.49902 23.001s-5.83301 15.333 -10.5 22s-10.334 12.167 -17.001 16.5s-14.334 6.5 -23.001 6.5c-36 0 -68.667 -9.33301 -98 -28s-55 -42.334 -77 -71.001s-40.333 -60 -55 -94s-26 -66.333 -34 -97c13.333 -4 27 -6 41 -6
c32 0 64.5 5.16699 97.5 15.5s62.833 25.333 89.5 45s48.334 43.5 65.001 71.5s25 60 25 96z" />
    <glyph glyph-name="Egrave" unicode="&#xc8;" horiz-adv-x="521" 
d="M415 809c0 -5.33301 -1.99805 -10.166 -5.99805 -14.499s-8.66699 -6.5 -14 -6.5s-15.333 5.5 -30 16.5s-29.834 23.5 -45.501 37.5s-29.667 27.667 -42 41s-18.5 22.666 -18.5 27.999s2.33301 10 7 14s9.66699 6 15 6c6 0 11 -2.33301 15 -7l23 -26
c7.33301 -8.66699 15.666 -17 24.999 -25c10 -8.66699 20.5 -16.667 31.5 -24s21.5 -15.333 31.5 -24c5.33301 -4 8 -9.33301 8 -16zM494.002 164c0 -24.667 -5.66895 -47.8281 -17.002 -69.4951s-26.166 -40.5 -44.499 -56.5s-39 -28.5 -62 -37.5s-46.5 -13.5 -70.5 -13.5
c-39.333 0 -75 8.5 -107 25.5s-59.333 39.5 -82 67.5s-40.167 59.667 -52.5 95s-18.5 71.333 -18.5 108c0 46 11.5 88.167 34.5 126.5s55.5 67.833 97.5 88.5c-4.66699 6.66699 -8.83398 13.334 -12.501 20.001s-6.83398 13.667 -9.50098 21c-16 1.33301 -34 4.5 -54 9.5
s-38.5 12.167 -55.5 21.5s-31.333 21.166 -43 35.499s-17.5 31.5 -17.5 51.5s7 38.167 21 54.5s31.167 30.166 51.5 41.499s41.666 20.166 63.999 26.499s41.833 9.5 58.5 9.5c5.33301 0 10 -1.83301 14 -5.5s6 -8.5 6 -14.5s-2 -10.833 -6 -14.5s-8.66699 -5.5 -14 -5.5
c-10.667 0 -24.667 -2.33301 -42 -7s-34.333 -11.167 -51 -19.5s-31 -18 -43 -29s-18 -23.167 -18 -36.5s4.5 -24.5 13.5 -33.5s19.667 -16.5 32 -22.5s25.5 -10.5 39.5 -13.5s26 -5.16699 36 -6.5c-0.666992 3.33301 -1 6.66602 -1 9.99902v11
c0 25.333 6.83301 49.333 20.5 72s31.167 42.5 52.5 59.5s44.833 30.5 70.5 40.5s50.167 15 73.5 15c28.667 0 51.834 -7.66699 69.501 -23s26.5 -38 26.5 -68c0 -28.667 -9.33301 -52.834 -28 -72.501s-41.5 -35.667 -68.5 -48s-55.5 -21.5 -85.5 -27.5
s-56 -9.66699 -78 -11c4 -8.66699 9 -16.667 15 -24c14 4.66699 28.333 8.33398 43 11.001s29.334 4 44.001 4c6.66699 0 14.334 -0.833008 23.001 -2.5s16.834 -4.33398 24.501 -8.00098s14.167 -8.5 19.5 -14.5s8 -13 8 -21c0 -9.33301 -2.33301 -17.5 -7 -24.5
s-10.834 -12.833 -18.501 -17.5s-15.834 -8.16699 -24.501 -10.5s-17 -3.5 -25 -3.5c-17.333 0 -34.166 3.5 -50.499 10.5s-31.166 16.167 -44.499 27.5c-36.667 -16.667 -65.834 -41.334 -87.501 -74.001s-32.5 -69 -32.5 -109c0 -30.667 5.16699 -61.334 15.5 -92.001
s25 -58.167 44 -82.5s42 -44 69 -59s57.167 -22.5 90.5 -22.5c18 0 36.167 3.5 54.5 10.5s34.666 16.833 48.999 29.5s26.166 27.334 35.499 44.001s14 34.334 14 53.001c0 12.667 -4.16699 24.5 -12.5 35.5s-19.166 16.5 -32.499 16.5c-14.667 0 -24.667 -2 -30 -6
s-9 -8.33301 -11 -13s-3.66699 -9 -5 -13s-5.66602 -6 -12.999 -6s-13.333 3 -18 9s-7 12.333 -7 19c0 8 3.16699 15.167 9.5 21.5s14 11.666 23 15.999s18.167 7.5 27.5 9.5s17.333 3 24 3c12 0 23.333 -2.5 34 -7.5s19.834 -11.833 27.501 -20.5s13.667 -18.5 18 -29.5
s6.5 -22.5 6.5 -34.5zM413 698.006c0 18 -4.83301 31.001 -14.5 39.001s-23.167 12 -40.5 12c-16 0 -31.833 -2.5 -47.5 -7.5s-30.667 -12 -45 -21s-27.333 -19.333 -39 -31s-21.5 -24.5 -29.5 -38.5c-4 -7.33301 -7.5 -15 -10.5 -23s-4.5 -16.667 -4.5 -26v-12
c0 -3.33301 0.333008 -7 1 -11c16 0.666992 37 3.16699 63 7.5s51.333 11.166 76 20.499s46 21.333 64 36s27 33 27 55zM326 482.007c0 1.33301 -1.33105 2.5 -3.99805 3.5s-5.66699 1.83301 -9 2.5s-6.66602 1 -9.99902 1h-6c-8 0 -16 -0.666992 -24 -2l-24 -4
c5.33301 -5.33301 12.666 -9 21.999 -11s17.666 -3 24.999 -3c3.33301 0 9.16602 0.833008 17.499 2.5s12.5 5.16699 12.5 10.5z" />
    <glyph glyph-name="Eacute" unicode="&#xc9;" horiz-adv-x="521" 
d="M414 906c0 -5.33301 -6 -14.665 -18 -27.998s-25.667 -27 -41 -41s-30.333 -26.333 -45 -37s-25 -16 -31 -16c-5.33301 0 -10.166 2 -14.499 6s-6.5 8.66699 -6.5 14c0 4 1.66699 8.16699 5 12.5s7.5 8.66602 12.5 12.999s10 8.16602 15 11.499s8.83301 6 11.5 8l29 22
c9.33301 7.33301 18 15.666 26 24.999l16 18.5c7.33301 8.33301 14 12.5 20 12.5c5.33301 0 10.166 -2.16699 14.499 -6.5s6.5 -9.16602 6.5 -14.499zM494 164.001c0 -24.667 -5.66895 -47.8281 -17.002 -69.4951s-26.166 -40.5 -44.499 -56.5s-39 -28.5 -62 -37.5
s-46.5 -13.5 -70.5 -13.5c-39.333 0 -75 8.5 -107 25.5s-59.333 39.5 -82 67.5s-40.167 59.667 -52.5 95s-18.5 71.333 -18.5 108c0 46 11.5 88.167 34.5 126.5s55.5 67.833 97.5 88.5c-4.66699 6.66699 -8.83398 13.334 -12.501 20.001s-6.83398 13.667 -9.50098 21
c-16 1.33301 -34 4.5 -54 9.5s-38.5 12.167 -55.5 21.5s-31.333 21.166 -43 35.499s-17.5 31.5 -17.5 51.5s7 38.167 21 54.5s31.167 30.166 51.5 41.499s41.666 20.166 63.999 26.499s41.833 9.5 58.5 9.5c5.33301 0 10 -1.83301 14 -5.5s6 -8.5 6 -14.5
s-2 -10.833 -6 -14.5s-8.66699 -5.5 -14 -5.5c-10.667 0 -24.667 -2.33301 -42 -7s-34.333 -11.167 -51 -19.5s-31 -18 -43 -29s-18 -23.167 -18 -36.5s4.5 -24.5 13.5 -33.5s19.667 -16.5 32 -22.5s25.5 -10.5 39.5 -13.5s26 -5.16699 36 -6.5
c-0.666992 3.33301 -1 6.66602 -1 9.99902v11c0 25.333 6.83301 49.333 20.5 72s31.167 42.5 52.5 59.5s44.833 30.5 70.5 40.5s50.167 15 73.5 15c28.667 0 51.834 -7.66699 69.501 -23s26.5 -38 26.5 -68c0 -28.667 -9.33301 -52.834 -28 -72.501s-41.5 -35.667 -68.5 -48
s-55.5 -21.5 -85.5 -27.5s-56 -9.66699 -78 -11c4 -8.66699 9 -16.667 15 -24c14 4.66699 28.333 8.33398 43 11.001s29.334 4 44.001 4c6.66699 0 14.334 -0.833008 23.001 -2.5s16.834 -4.33398 24.501 -8.00098s14.167 -8.5 19.5 -14.5s8 -13 8 -21
c0 -9.33301 -2.33301 -17.5 -7 -24.5s-10.834 -12.833 -18.501 -17.5s-15.834 -8.16699 -24.501 -10.5s-17 -3.5 -25 -3.5c-17.333 0 -34.166 3.5 -50.499 10.5s-31.166 16.167 -44.499 27.5c-36.667 -16.667 -65.834 -41.334 -87.501 -74.001s-32.5 -69 -32.5 -109
c0 -30.667 5.16699 -61.334 15.5 -92.001s25 -58.167 44 -82.5s42 -44 69 -59s57.167 -22.5 90.5 -22.5c18 0 36.167 3.5 54.5 10.5s34.666 16.833 48.999 29.5s26.166 27.334 35.499 44.001s14 34.334 14 53.001c0 12.667 -4.16699 24.5 -12.5 35.5
s-19.166 16.5 -32.499 16.5c-14.667 0 -24.667 -2 -30 -6s-9 -8.33301 -11 -13s-3.66699 -9 -5 -13s-5.66602 -6 -12.999 -6s-13.333 3 -18 9s-7 12.333 -7 19c0 8 3.16699 15.167 9.5 21.5s14 11.666 23 15.999s18.167 7.5 27.5 9.5s17.333 3 24 3
c12 0 23.333 -2.5 34 -7.5s19.834 -11.833 27.501 -20.5s13.667 -18.5 18 -29.5s6.5 -22.5 6.5 -34.5zM412.998 698.007c0 18 -4.83301 31.001 -14.5 39.001s-23.167 12 -40.5 12c-16 0 -31.833 -2.5 -47.5 -7.5s-30.667 -12 -45 -21s-27.333 -19.333 -39 -31
s-21.5 -24.5 -29.5 -38.5c-4 -7.33301 -7.5 -15 -10.5 -23s-4.5 -16.667 -4.5 -26v-12c0 -3.33301 0.333008 -7 1 -11c16 0.666992 37 3.16699 63 7.5s51.333 11.166 76 20.499s46 21.333 64 36s27 33 27 55zM325.998 482.008c0 1.33301 -1.33105 2.5 -3.99805 3.5
s-5.66699 1.83301 -9 2.5s-6.66602 1 -9.99902 1h-6c-8 0 -16 -0.666992 -24 -2l-24 -4c5.33301 -5.33301 12.666 -9 21.999 -11s17.666 -3 24.999 -3c3.33301 0 9.16602 0.833008 17.499 2.5s12.5 5.16699 12.5 10.5z" />
    <glyph glyph-name="Ecircumflex" unicode="&#xca;" horiz-adv-x="521" 
d="M402 815c0 -5.33301 -2.00098 -9.99805 -6.00098 -13.998s-8.66699 -6 -14 -6c-4.66699 0 -11.667 4.83301 -21 14.5s-18.666 20.167 -27.999 31.5l-25.5 32c-7.66699 10 -12.5 15.333 -14.5 16c-2 -4 -7.33301 -11.167 -16 -21.5s-18 -20.833 -28 -31.5
s-19.5 -20.167 -28.5 -28.5s-15.167 -12.5 -18.5 -12.5c-5.33301 0 -10.166 2 -14.499 6s-6.5 8.66699 -6.5 14c0 6.66699 3.83301 13.834 11.5 21.501s13.834 13.5 18.501 17.5c8 7.33301 15.5 15.166 22.5 23.499s13.833 17.166 20.5 26.499
c4 5.33301 9.66699 12.333 17 21s14.666 13 21.999 13c3.33301 0 7.66602 -2 12.999 -6c8.66699 -8 16 -16.833 22 -26.5s12.667 -18.834 20 -27.501c7.33301 -9.33301 15.5 -17.833 24.5 -25.5s17.167 -16.167 24.5 -25.5c3.33301 -3.33301 5 -7.33301 5 -12z
M493.999 164.002c0 -24.667 -5.66895 -47.8281 -17.002 -69.4951s-26.166 -40.5 -44.499 -56.5s-39 -28.5 -62 -37.5s-46.5 -13.5 -70.5 -13.5c-39.333 0 -75 8.5 -107 25.5s-59.333 39.5 -82 67.5s-40.167 59.667 -52.5 95s-18.5 71.333 -18.5 108
c0 46 11.5 88.167 34.5 126.5s55.5 67.833 97.5 88.5c-4.66699 6.66699 -8.83398 13.334 -12.501 20.001s-6.83398 13.667 -9.50098 21c-16 1.33301 -34 4.5 -54 9.5s-38.5 12.167 -55.5 21.5s-31.333 21.166 -43 35.499s-17.5 31.5 -17.5 51.5s7 38.167 21 54.5
s31.167 30.166 51.5 41.499s41.666 20.166 63.999 26.499s41.833 9.5 58.5 9.5c5.33301 0 10 -1.83301 14 -5.5s6 -8.5 6 -14.5s-2 -10.833 -6 -14.5s-8.66699 -5.5 -14 -5.5c-10.667 0 -24.667 -2.33301 -42 -7s-34.333 -11.167 -51 -19.5s-31 -18 -43 -29
s-18 -23.167 -18 -36.5s4.5 -24.5 13.5 -33.5s19.667 -16.5 32 -22.5s25.5 -10.5 39.5 -13.5s26 -5.16699 36 -6.5c-0.666992 3.33301 -1 6.66602 -1 9.99902v11c0 25.333 6.83301 49.333 20.5 72s31.167 42.5 52.5 59.5s44.833 30.5 70.5 40.5s50.167 15 73.5 15
c28.667 0 51.834 -7.66699 69.501 -23s26.5 -38 26.5 -68c0 -28.667 -9.33301 -52.834 -28 -72.501s-41.5 -35.667 -68.5 -48s-55.5 -21.5 -85.5 -27.5s-56 -9.66699 -78 -11c4 -8.66699 9 -16.667 15 -24c14 4.66699 28.333 8.33398 43 11.001s29.334 4 44.001 4
c6.66699 0 14.334 -0.833008 23.001 -2.5s16.834 -4.33398 24.501 -8.00098s14.167 -8.5 19.5 -14.5s8 -13 8 -21c0 -9.33301 -2.33301 -17.5 -7 -24.5s-10.834 -12.833 -18.501 -17.5s-15.834 -8.16699 -24.501 -10.5s-17 -3.5 -25 -3.5
c-17.333 0 -34.166 3.5 -50.499 10.5s-31.166 16.167 -44.499 27.5c-36.667 -16.667 -65.834 -41.334 -87.501 -74.001s-32.5 -69 -32.5 -109c0 -30.667 5.16699 -61.334 15.5 -92.001s25 -58.167 44 -82.5s42 -44 69 -59s57.167 -22.5 90.5 -22.5
c18 0 36.167 3.5 54.5 10.5s34.666 16.833 48.999 29.5s26.166 27.334 35.499 44.001s14 34.334 14 53.001c0 12.667 -4.16699 24.5 -12.5 35.5s-19.166 16.5 -32.499 16.5c-14.667 0 -24.667 -2 -30 -6s-9 -8.33301 -11 -13s-3.66699 -9 -5 -13s-5.66602 -6 -12.999 -6
s-13.333 3 -18 9s-7 12.333 -7 19c0 8 3.16699 15.167 9.5 21.5s14 11.666 23 15.999s18.167 7.5 27.5 9.5s17.333 3 24 3c12 0 23.333 -2.5 34 -7.5s19.834 -11.833 27.501 -20.5s13.667 -18.5 18 -29.5s6.5 -22.5 6.5 -34.5zM412.997 698.008
c0 18 -4.83301 31.001 -14.5 39.001s-23.167 12 -40.5 12c-16 0 -31.833 -2.5 -47.5 -7.5s-30.667 -12 -45 -21s-27.333 -19.333 -39 -31s-21.5 -24.5 -29.5 -38.5c-4 -7.33301 -7.5 -15 -10.5 -23s-4.5 -16.667 -4.5 -26v-12c0 -3.33301 0.333008 -7 1 -11
c16 0.666992 37 3.16699 63 7.5s51.333 11.166 76 20.499s46 21.333 64 36s27 33 27 55zM325.997 482.009c0 1.33301 -1.33105 2.5 -3.99805 3.5s-5.66699 1.83301 -9 2.5s-6.66602 1 -9.99902 1h-6c-8 0 -16 -0.666992 -24 -2l-24 -4
c5.33301 -5.33301 12.666 -9 21.999 -11s17.666 -3 24.999 -3c3.33301 0 9.16602 0.833008 17.499 2.5s12.5 5.16699 12.5 10.5z" />
    </font>
</defs>
</svg>
