<?xml version="1.0" standalone="no"?>
<!DOCTYPE svg PUBLIC "-//W3C//DTD SVG 1.1//EN" "http://www.w3.org/Graphics/SVG/1.1/DTD/svg11.dtd" >
<svg>
<metadata>
Created by FontForge 20090914 at Thu Dec 10 12:42:24 2015
 By www-data
</metadata>
<defs>
<font id="Cursivestandardbold" horiz-adv-x="609" >
  <font-face 
    font-family="Cursive standard"
    font-weight="700"
    font-stretch="normal"
    units-per-em="1000"
    panose-1="0 0 0 0 0 0 0 0 0 0"
    ascent="800"
    descent="-200"
    x-height="345.001"
    cap-height="926"
    bbox="-174.003 -630 1079 963.004"
    underline-thickness="50"
    underline-position="-50"
    unicode-range="U+0020-U+E00A"
  />
<missing-glyph horiz-adv-x="400" 
 />
    <glyph glyph-name=".notdef" horiz-adv-x="400" 
 />
    <glyph glyph-name="space" unicode=" " horiz-adv-x="400" 
 />
    <glyph glyph-name="space" unicode="&#xa0;" horiz-adv-x="400" 
 />
    <glyph glyph-name="exclam" unicode="!" horiz-adv-x="269" 
d="M196 39c0 -19.333 -7.16699 -35.833 -21.5 -49.5s-30.833 -20.5 -49.5 -20.5s-35 6.83301 -49 20.5s-21 30.167 -21 49.5s7 35.666 21 48.999s30.333 20 49 20s35.167 -6.66699 49.5 -20s21.5 -29.666 21.5 -48.999zM170 165c0 -13.333 -5 -24.1699 -15 -32.5029
s-20.667 -12.5 -32 -12.5c-12.667 0 -23.334 4.33301 -32.001 13s-13 19.334 -13 32.001v588c0 12.667 4.33301 23.334 13 32.001s19.334 13 32.001 13c11.333 0 22 -4.16699 32 -12.5s15 -19.166 15 -32.499v-588z" />
    <glyph glyph-name="quotedbl" unicode="&#x22;" horiz-adv-x="245" 
d="M184 552c0 -12.667 -4.66699 -23.167 -14 -31.5s-20 -12.5 -32 -12.5c-16 0 -28.333 6 -37 18c-10 -12 -22.333 -18 -37 -18c-12.667 0 -23.334 4.16699 -32.001 12.5s-13 18.833 -13 31.5v126c0 12.667 4.33301 23.167 13 31.5s19.334 12.5 32.001 12.5
c14.667 0 27 -6 37 -18c8.66699 12 21 18 37 18c12 0 22.667 -4.16699 32 -12.5s14 -18.833 14 -31.5v-126z" />
    <glyph glyph-name="numbersign" unicode="#" horiz-adv-x="474" 
d="M276 385h-66v-60h66v60zM474 280c0 -12 -4.66699 -22.667 -14 -32s-20 -14 -32 -14h-61v-59c0 -12.667 -4.66699 -23.334 -14 -32.001s-20 -13 -32 -13c-12.667 0 -23.334 4.33301 -32.001 13s-13 19.334 -13 32.001v59h-66v-59c0 -12.667 -4.66699 -23.334 -14 -32.001
s-20 -13 -32 -13c-12.667 0 -23.334 4.33301 -32.001 13s-13 19.334 -13 32.001v59h-63c-12.667 0 -23.334 4.66699 -32.001 14s-13 20 -13 32c0 12.667 4.33301 23.334 13 32.001s19.334 13 32.001 13h63v60h-63c-12.667 0 -23.334 4.33301 -32.001 13
s-13 19.334 -13 32.001s4.33301 23.334 13 32.001s19.334 13 32.001 13h63v58c0 12.667 4.33301 23.334 13 32.001s19.334 13 32.001 13c12 0 22.667 -4.33301 32 -13s14 -19.334 14 -32.001v-58h66v58c0 12.667 4.33301 23.334 13 32.001s19.334 13 32.001 13
c12 0 22.667 -4.33301 32 -13s14 -19.334 14 -32.001v-58h61c12 0 22.667 -4.33301 32 -13s14 -19.334 14 -32.001s-4.66699 -23.334 -14 -32.001s-20 -13 -32 -13h-61v-60h61c12 0 22.667 -4.33301 32 -13s14 -19.334 14 -32.001z" />
    <glyph glyph-name="dollar" unicode="$" horiz-adv-x="227" 
d="M75 217h2h-2zM75 218c-3.33301 -9.33301 -6.66504 -18.168 -9.99805 -26.501l-11 -26.5c12 -0.666992 22.667 -4.5 32 -11.5s14 -17.833 14 -32.5c0 -16.667 -3.66699 -27.167 -11 -31.5s-15.333 -8.16602 -24 -11.499c1.33301 -8.66699 5 -15.167 11 -19.5
s13 -6.5 21 -6.5c23.333 0 43.5 7 60.5 21s25.5 33 25.5 57c0 10 -3.33301 19.167 -10 27.5s-15.334 16 -26.001 23s-22.167 13.5 -34.5 19.5l-35.5 17c-0.666992 0 -1.33398 0.333008 -2.00098 1zM274.001 129.998c0 -25.333 -4.66699 -48.166 -14 -68.499s-22 -38 -38 -53
s-34.833 -26.5 -56.5 -34.5s-44.5 -12 -68.5 -12c-35.333 0 -64.833 10.833 -88.5 32.5s-35.5 51.5 -35.5 89.5c0 11.333 2 22 6 32c-7.33301 3.33301 -13.166 8.33301 -17.499 15s-6.5 14.667 -6.5 24c0 3.33301 3.16699 13 9.5 29l18.5 47c4.66699 11.333 8 19 10 23
s3.66699 7.66699 5 11c-8.66699 9.33301 -15.834 19.5 -21.501 30.5s-8.5 23.167 -8.5 36.5c0 10.667 1.33301 21.334 4 32.001s6.83398 20.167 12.501 28.5s13.167 15 22.5 20s20.666 7.5 33.999 7.5c9.33301 0 18.5 -1.83301 27.5 -5.5s16.833 -8.83398 23.5 -15.501
s12 -14.167 16 -22.5s6 -17.5 6 -27.5c0 -16.667 -2.33301 -32.334 -7 -47.001c1.33301 -0.666992 3.5 -1.5 6.5 -2.5s5.16699 -2.16699 6.5 -3.5c17.333 -8 35 -17 53 -27s34.5 -21.5 49.5 -34.5s27.333 -28 37 -45s14.5 -36.833 14.5 -59.5z" />
    <glyph glyph-name="percent" unicode="%" horiz-adv-x="557" 
d="M187 676c0 13.333 -4.6709 24.666 -14.0039 33.999s-20.666 14 -33.999 14s-24.666 -4.66699 -33.999 -14s-14 -20.666 -14 -33.999c0 -14.667 4.33301 -28 13 -40s20.334 -18 35.001 -18s26.334 6 35.001 18s13 25.333 13 40zM496.996 110
c0 13.333 -4.6709 24.666 -14.0039 33.999s-20.666 14 -33.999 14s-24.666 -4.66699 -33.999 -14s-14 -20.666 -14 -33.999c0 -14 4.33301 -27.333 13 -40s20.334 -19 35.001 -19s26.334 6.33301 35.001 19s13 26 13 40zM277.992 676c0 -19.333 -3.33398 -38 -10.001 -56
s-16.167 -33.833 -28.5 -47.5s-27 -24.667 -44 -33s-35.833 -12.5 -56.5 -12.5s-39.5 4.16699 -56.5 12.5s-31.667 19.333 -44 33s-21.833 29.5 -28.5 47.5s-10 36.667 -10 56c0 18 3.83301 35.333 11.5 52s17.834 31.334 30.501 44.001s27.5 22.834 44.5 30.501
s34.5 11.5 52.5 11.5c18.667 0 36.5 -3.66699 53.5 -11s31.833 -17.333 44.5 -30s22.667 -27.334 30 -44.001s11 -34.334 11 -53.001zM587.991 110c0 -19.333 -3.33398 -38.001 -10.001 -56.001s-16.167 -33.833 -28.5 -47.5s-27 -24.667 -44 -33s-35.833 -12.5 -56.5 -12.5
s-39.5 4.16699 -56.5 12.5s-31.667 19.333 -44 33s-21.833 29.5 -28.5 47.5s-10 36.667 -10 56c0 18 3.83301 35.5 11.5 52.5s17.834 31.833 30.501 44.5s27.5 22.834 44.5 30.501s34.5 11.5 52.5 11.5c18.667 0 36.5 -3.66699 53.5 -11s31.833 -17.333 44.5 -30
s22.667 -27.5 30 -44.5s11 -34.833 11 -53.5zM490.99 756.999l-97.5 -248.5l-100.5 -247.5l-13 -30.5c-4.66699 -11 -8.66699 -21.5 -12 -31.5l-56 -140c-1.33301 -2 -2.5 -4.5 -3.5 -7.5l-3.5 -10.5l1 1c-2.66699 -8 -5.83398 -17 -9.50098 -27
s-8.16699 -19.167 -13.5 -27.5s-11.5 -15.333 -18.5 -21s-14.833 -8.5 -23.5 -8.5c-13.333 0 -24.333 5 -33 15s-13 21.667 -13 35l94 240l96 238c4.66699 10.667 9 21.167 13 31.5s8.33301 20.833 13 31.5v-1l33 81l32 82c1.33301 2 2.5 4.5 3.5 7.5l3.5 10.5l-1 -1
c2.66699 8 5.83398 17 9.50098 27s8.16699 19.167 13.5 27.5s11.333 15.333 18 21s14.667 8.5 24 8.5c13.333 0 24.333 -4.66699 33 -14s13 -20 13 -32z" />
    <glyph glyph-name="ampersand" unicode="&#x26;" horiz-adv-x="555" 
d="M320 302l39 -65.4961c13.333 -21.667 27.666 -43.167 42.999 -64.5c4.66699 13.333 7.5 26.666 8.5 39.999s1.5 27.666 1.5 42.999c0 10.667 -0.166992 21.167 -0.5 31.5s-1.16602 20.166 -2.49902 29.499l-2 1c-11.333 6.66699 -20 10.667 -26 12
c0 -0.666992 -1.33301 -1.83398 -4 -3.50098l-7 -4.5c-7.33301 -4.66699 -14.5 -9 -21.5 -13s-14.5 -6 -22.5 -6h-6zM282 628.004c0 16 -4.66699 31.498 -14 46.498s-22 22.5 -38 22.5c-8 0 -14.833 -2.33301 -20.5 -7s-10.5 -10.5 -14.5 -17.5s-7 -14.667 -9 -23
s-3 -16.166 -3 -23.499c0 -11.333 2.83301 -26.166 8.5 -44.499s11.834 -35.833 18.501 -52.5c17.333 13.333 33.666 28.333 48.999 45s23 34.667 23 54zM238 52.002c20.667 0 40.1641 3.5 58.4971 10.5s35.166 17.167 50.499 30.5c-34.667 46.667 -66.167 95 -94.5 145
s-55.166 101.667 -80.499 155c-14 -10 -27.667 -20.667 -41 -32s-25.166 -23.666 -35.499 -36.999s-18.666 -27.5 -24.999 -42.5s-9.5 -30.833 -9.5 -47.5c0 -24.667 4.5 -48 13.5 -70s21.333 -41.333 37 -58s34.334 -29.834 56.001 -39.501s45.167 -14.5 70.5 -14.5z
M600.997 366.002c0 -12 -4.66699 -22.667 -14 -32c-11.333 -11.333 -24.333 -20.333 -39 -27s-30 -11 -46 -13c0.666992 -5.33301 1 -11.333 1 -18v-17c0 -31.333 -2.66699 -60.333 -8 -87s-16.333 -53.667 -33 -81c8 -9.33301 16.333 -17.666 25 -24.999
s18.667 -12.333 30 -15c11.333 -3.33301 20.666 -7.33301 27.999 -12s11 -15.334 11 -32.001c0 -13.333 -4.66699 -24.166 -14 -32.499s-20 -12.5 -32 -12.5c-20 0 -39 6.66699 -57 20s-33.667 27 -47 41c-23.333 -19.333 -49.5 -34.333 -78.5 -45s-58.833 -16 -89.5 -16
c-37.333 0 -72.333 7.16699 -105 21.5s-61 33.833 -85 58.5s-43 53.5 -57 86.5s-21 68.167 -21 105.5c0 28.667 4.66699 54.834 14 78.501s21.666 45.334 36.999 65.001s32.833 37.667 52.5 54s39.834 31.833 60.501 46.5c-4.66699 10.667 -9.5 22.667 -14.5 36
s-9.5 26.5 -13.5 39.5s-7.33301 25.833 -10 38.5s-4 24 -4 34c0 19.333 3 38.5 9 57.5s15 36.167 27 51.5s26.5 27.833 43.5 37.5s36.5 14.5 58.5 14.5c21.333 0 40.833 -4.5 58.5 -13.5s32.667 -21 45 -36s22 -32 29 -51s10.5 -38.5 10.5 -58.5
c0 -21.333 -3.66699 -40.833 -11 -58.5s-17 -34 -29 -49s-25.5 -28.667 -40.5 -41s-30.167 -23.833 -45.5 -34.5l18.5 -39.5l19.5 -38.5c1.33301 3.33301 3.5 6.33301 6.5 9s6.16699 5.66699 9.5 9l1 1c0.666992 0 1.33398 0.333008 2.00098 1
c10.667 7.33301 22.667 14.5 36 21.5s27 10.5 41 10.5s26.5 -2.33301 37.5 -7s21.5 -9.66699 31.5 -15c6 -3.33301 11.667 -6.33301 17 -9s10 -4 14 -4c10.667 0 19.5 1.66699 26.5 5s13.167 6.66602 18.5 9.99902s9.5 6.16602 12.5 8.49902s8.5 3.5 16.5 3.5
c12 0 22.667 -4.33301 32 -13s14 -19.334 14 -32.001z" />
    <glyph glyph-name="quotesingle" unicode="'" horiz-adv-x="173" 
d="M111 552c0 -12.667 -4.66699 -23.167 -14 -31.5s-20 -12.5 -32 -12.5c-12.667 0 -23.334 4.16699 -32.001 12.5s-13 18.833 -13 31.5v125c0 12.667 4.33301 23.167 13 31.5s19.334 12.5 32.001 12.5c12 0 22.667 -4.16699 32 -12.5s14 -18.833 14 -31.5v-125z" />
    <glyph glyph-name="parenleft" unicode="(" horiz-adv-x="237" 
d="M217 -160c0 -12.667 -4.67188 -23.3389 -14.0049 -32.0059s-20 -13 -32 -13c-14.667 0 -26.667 5.66699 -36 17l1 -1c-25.333 27.333 -48.166 61.666 -68.499 102.999s-38 85 -53 131s-26.5 91.833 -34.5 137.5s-12 86.834 -12 123.501c0 38 4.16699 79.5 12.5 124.5
s19.833 89.833 34.5 134.5s32.334 87.334 53.001 128.001s43.334 76 68.001 106c10 12 21.667 18 35 18c12 0 22.667 -4.66699 32 -14s14 -20 14 -32c0 -8 -4.16699 -19.333 -12.5 -34s-17.166 -28.667 -26.499 -42v1c-3.33301 -5.33301 -6.16602 -10.166 -8.49902 -14.499
s-5.16602 -9.16602 -8.49902 -14.499c-31.333 -55.333 -56.166 -113.666 -74.499 -174.999s-27.5 -123.333 -27.5 -186c0 -64 9.16699 -126.667 27.5 -188s43.166 -119.666 74.499 -174.999c0.666992 -1.33301 2.66699 -4.66602 6 -9.99902l11 -18v1
c9.33301 -13.333 18.166 -27.5 26.499 -42.5s12.5 -26.167 12.5 -33.5z" />
    <glyph glyph-name="parenright" unicode=")" horiz-adv-x="237" 
d="M270 306c0 -36.667 -4.16699 -77.833 -12.5 -123.5s-20 -91.5 -35 -137.5s-32.833 -89.667 -53.5 -131s-43.334 -75.666 -68.001 -102.999l1 1c-9.33301 -11.333 -21.333 -17 -36 -17c-12 0 -22.667 4.33301 -32 13s-14 19.334 -14 32.001c0 8.66699 2.66699 17 8 25
c22 34 42.167 68.5 60.5 103.5s34.166 70.5 47.499 106.5s23.666 73.167 30.999 111.5s11 78.166 11 119.499s-3.66699 81 -11 119s-17.666 75.167 -30.999 111.5s-29.166 71.833 -47.499 106.5s-38.5 69 -60.5 103c-5.33301 8 -8 16.333 -8 25c0 12 4.66699 22.667 14 32
s20 14 32 14c13.333 0 25 -6 35 -18c24.667 -29.333 47.334 -64.333 68.001 -105s38.5 -83.334 53.5 -128.001s26.667 -89.667 35 -135s12.5 -87 12.5 -125z" />
    <glyph glyph-name="asterisk" unicode="*" horiz-adv-x="474" 
d="M412 510c0 -12.667 -4.66602 -23.3359 -13.999 -32.0029s-20 -13 -32 -13c-3.33301 0 -8 1.16699 -14 3.5s-13 5.33301 -21 9s-16.333 7.83398 -25 12.501l-25 13v-68c0 -12.667 -4.66699 -23.334 -14 -32.001s-20 -13 -32 -13c-12.667 0 -23.334 4.33301 -32.001 13
s-13 19.334 -13 32.001v63c-15.333 -8.66699 -31.166 -17 -47.499 -25s-28.166 -12 -35.499 -12c-12.667 0 -23.334 4.33301 -32.001 13s-13 19.334 -13 32.001c0 17.333 7.66699 30 23 38h-1l18 10.5c4 2.33301 7.66699 4.33301 11 6s7 3.66699 11 6l18 10.5l-57 30l1 -1
c-16.667 7.33301 -25 20.666 -25 39.999c0 12.667 4.66699 23.334 14 32.001s20 13 32 13c7.33301 0 19.166 -4.16699 35.499 -12.5s32.166 -16.833 47.499 -25.5v64c0 12.667 4.33301 23.334 13 32.001s19.334 13 32.001 13c12 0 22.667 -4.33301 32 -13
s14 -19.334 14 -32.001v-64c8 4 16.167 8.33301 24.5 13s16.333 8.83398 24 12.501s14.5 6.66699 20.5 9s10.667 3.5 14 3.5c12 0 22.667 -4.16699 32 -12.5s14 -18.833 14 -31.5c0 -16.667 -8 -29.667 -24 -39l-55 -31l29 -14.5l28 -14.5c16 -7.33301 24 -20 24 -38z" />
    <glyph glyph-name="plus" unicode="+" horiz-adv-x="869" 
d="M678 349c0 -12.667 -4.66699 -23.334 -14 -32.001s-20 -13 -32 -13h-152v-144c0 -12.667 -4.66699 -23.334 -14 -32.001s-20 -13 -32 -13c-12.667 0 -23.334 4.33301 -32.001 13s-13 19.334 -13 32.001v144h-152c-12.667 0 -23.167 4.33301 -31.5 13
s-12.5 19.334 -12.5 32.001s4.16699 23.334 12.5 32.001s18.833 13 31.5 13h152v146c0 12.667 4.33301 23.334 13 32.001s19.334 13 32.001 13c12 0 22.667 -4.33301 32 -13s14 -19.334 14 -32.001v-146h152c12 0 22.667 -4.33301 32 -13s14 -19.334 14 -32.001z" />
    <glyph glyph-name="comma" unicode="," horiz-adv-x="149" 
d="M101 23c0 -25.333 -3.16504 -51.501 -9.49805 -78.501s-16 -52 -29 -75s-29.333 -41.833 -49 -56.5s-42.834 -22 -69.501 -22c-11.333 0 -21.166 4.16699 -29.499 12.5s-12.5 18.833 -12.5 31.5s4.16699 23.167 12.5 31.5s18.166 12.5 29.499 12.5c8 0 15.333 2.5 22 7.5
s12.667 11.333 18 19s10 16.334 14 26.001s7.33301 19.167 10 28.5v-1c5.33301 22.667 8 44 8 64c0 12.667 4.16699 23.167 12.5 31.5s18.166 12.5 29.499 12.5c10.667 0 20.5 -4.16699 29.5 -12.5s13.5 -18.833 13.5 -31.5z" />
    <glyph glyph-name="hyphen" unicode="-" horiz-adv-x="474" 
d="M416 172c0 -8 -1.5 -14.5 -4.5 -19.5s-6.83301 -8.83301 -11.5 -11.5s-9.66699 -4.5 -15 -5.5s-10.333 -1.5 -15 -1.5h-267c-9.33301 0 -19.166 2.33301 -29.499 7s-15.5 15 -15.5 31s5.16699 26.333 15.5 31s20.166 7 29.499 7h267c4.66699 0 9.66699 -0.5 15 -1.5
s10.333 -2.83301 15 -5.5s8.5 -6.5 11.5 -11.5s4.5 -11.5 4.5 -19.5z" />
    <glyph glyph-name="period" unicode="." horiz-adv-x="138" 
d="M140 32c0 -19.333 -7.5 -34.6719 -22.5 -46.0049s-30.833 -17 -47.5 -17c-8 0 -16.167 1.33301 -24.5 4s-16 6.83398 -23 12.501s-12.667 12.334 -17 20.001s-6.5 16.5 -6.5 26.5s2.16699 18.833 6.5 26.5s10 14.334 17 20.001s14.667 9.83398 23 12.501s16.5 4 24.5 4
c16.667 0 32.5 -5.66699 47.5 -17s22.5 -26.666 22.5 -45.999z" />
    <glyph glyph-name="slash" unicode="/" horiz-adv-x="474" 
d="M372 753c0 -0.666992 -0.167969 -1.50098 -0.500977 -2.50098s-0.5 -2.16699 -0.5 -3.5l-180 -751l1 1c-5.33301 -23.333 -20 -35 -44 -35c-12 0 -22.667 4.33301 -32 13s-14 19.334 -14 32.001v6l182 759c2.66699 8 7.83398 14.5 15.501 19.5s16.5 7.5 26.5 7.5
c13.333 0 24.333 -4.66699 33 -14s13 -20 13 -32z" />
    <glyph glyph-name="zero" unicode="0" 
d="M533 382c0 48.667 -7.66797 96.6641 -23.001 143.997c-7.33301 22.667 -17.333 45.334 -30 68.001s-27.667 42.834 -45 60.501s-36.833 32 -58.5 43s-45.5 16.5 -71.5 16.5c-25.333 0 -48.833 -5.5 -70.5 -16.5s-41.167 -25.5 -58.5 -43.5s-32.5 -38.167 -45.5 -60.5
s-23.5 -44.833 -31.5 -67.5c-15.333 -46 -23 -94 -23 -144c0 -33.333 4.66699 -69.5 14 -108.5s23.333 -75.167 42 -108.5s42.334 -61.166 71.001 -83.499s62.334 -33.5 101.001 -33.5c26.667 0 51.167 6 73.5 18s42.166 27.5 59.499 46.5s32.5 40.333 45.5 64
s23.167 47.167 30.5 70.5c13.333 44 20 89 20 135zM623.999 381.997c0 -53.333 -7.99805 -106.999 -23.998 -160.999c-10 -33.333 -23.833 -65.666 -41.5 -96.999s-39 -59.333 -64 -84s-53.5 -44.5 -85.5 -59.5s-67 -22.5 -105 -22.5c-36 0 -68.667 6.33301 -98 19
s-55.833 29.667 -79.5 51s-44.334 46.166 -62.001 74.499s-32.334 58.166 -44.001 89.499s-20.5 63.333 -26.5 96s-9 64 -9 94c0 58.667 9 116 27 172c10.667 32 25 63.167 43 93.5s39.167 57 63.5 80s52.166 41.5 83.499 55.5s65.666 21 102.999 21s71.5 -7 102.5 -21
s58.833 -32.5 83.5 -55.5s45.834 -49.667 63.501 -80s31.834 -61.5 42.501 -93.5c18 -56 27 -113.333 27 -172z" />
    <glyph glyph-name="one" unicode="1" 
d="M451 7c0 -13.333 -4.66406 -24.167 -13.9971 -32.5s-20 -12.5 -32 -12.5c-12.667 0 -23.334 4.16699 -32.001 12.5s-13 19.166 -13 32.499l-2 603l-41 -50c-14.667 -17.333 -29 -33.166 -43 -47.499s-27.167 -26.333 -39.5 -36s-22.5 -14.5 -30.5 -14.5
c-12.667 0 -23.334 4.66699 -32.001 14s-13 20 -13 32c0 12.667 4.33301 23.334 13 32.001c3.33301 3.33301 6.16602 6.33301 8.49902 9s5.16602 5.66699 8.49902 9l9.5 9.5l9.5 9.5c26.667 27.333 52 55.666 76 84.999h-1l17.5 21.5c5.66699 7 11.167 14.5 16.5 22.5
l25.5 35.5c8.33301 11.667 16.833 22.167 25.5 31.5l-1 -2c9.33301 13.333 22 20 38 20c13.333 0 23.833 -5 31.5 -15s11.834 -20.667 12.501 -32z" />
    <glyph glyph-name="two" unicode="2" 
d="M586 7c0 -13.333 -4.66406 -24.167 -13.9971 -32.5s-20 -12.5 -32 -12.5h-453c-12 0 -22.667 4.33301 -32 13s-14 19.334 -14 32.001c0 35.333 7 68.5 21 99.5s32.333 60.333 55 88s48.167 54.167 76.5 79.5l86.5 75l70 59.5c22.667 19.667 42.834 39.5 60.501 59.5
s31.834 40.167 42.501 60.5s16 41.166 16 62.499c0 20 -4.83301 37.833 -14.5 53.5s-22 29 -37 40s-31.833 19.5 -50.5 25.5s-37.334 9 -56.001 9c-28.667 0 -55 -5.83301 -79 -17.5s-44.833 -27.334 -62.5 -47.001s-31.334 -42.167 -41.001 -67.5s-14.5 -52 -14.5 -80
c0 -13.333 -4.66699 -24.166 -14 -32.499s-20 -12.5 -32 -12.5c-12.667 0 -23.334 4.16699 -32.001 12.5s-13 19.166 -13 32.499c0 40 7.33301 78.167 22 114.5s35 68.5 61 96.5s56.5 50.167 91.5 66.5s72.833 24.5 113.5 24.5c30 0 60 -5.16699 90 -15.5s56.667 -25 80 -44
s42.333 -41.833 57 -68.5s22 -56.667 22 -90c0 -31.333 -6.5 -61 -19.5 -89s-30.167 -54.833 -51.5 -80.5s-45.333 -50.334 -72 -74.001l-80 -69.5l-61 -52.5c-20.667 -18.333 -40.334 -37.166 -59.001 -56.499s-34.834 -38.833 -48.501 -58.5s-23.5 -39.167 -29.5 -58.5
h401c12 0 22.667 -4.16699 32 -12.5s14 -19.166 14 -32.499z" />
    <glyph glyph-name="three" unicode="3" 
d="M596 248c0 -40 -8.33105 -77.499 -24.998 -112.499s-38.834 -65.667 -66.501 -92s-59.667 -47.166 -96 -62.499s-73.833 -23 -112.5 -23c-35.333 0 -70 5.83301 -104 17.5s-64.167 28.5 -90.5 50.5s-47.5 48.5 -63.5 79.5s-24 65.5 -24 103.5
c0 13.333 4.33301 24.166 13 32.499s19.334 12.5 32.001 12.5c12 0 22.667 -4.16699 32 -12.5s14 -19.166 14 -32.499c0 -25.333 5.5 -47.833 16.5 -67.5s25.5 -36.334 43.5 -50.001s38.5 -24.167 61.5 -31.5s46.167 -11 69.5 -11c26.667 0 52.5 5.16699 77.5 15.5
s47.333 24.5 67 42.5s35.334 39.167 47.001 63.5s17.5 50.166 17.5 77.499c0 42.667 -15 79 -45 109c-34.667 -19.333 -72.334 -29 -113.001 -29c-10 0 -21.5 2 -34.5 6s-25.5 9.66699 -37.5 17s-22 16.166 -30 26.499s-12 22.166 -12 35.499
c0 15.333 3.66699 28.166 11 38.499s16.333 18.666 27 24.999s22.334 10.833 35.001 13.5s24.667 4 36 4c18.667 0 37.5 -1.83301 56.5 -5.5s37.167 -9.5 54.5 -17.5c22.667 28.667 34 62.334 34 101.001c0 21.333 -5.66699 40.666 -17 57.999s-25.833 32.333 -43.5 45
s-37.167 22.334 -58.5 29.001s-42 10 -62 10c-17.333 0 -34.666 -2.33301 -51.999 -7s-33.833 -11.167 -49.5 -19.5s-30 -18.666 -43 -30.999s-23.833 -26.166 -32.5 -41.499v2l-2 -6l-16.5 -27.5c-5.66699 -9 -16.834 -13.5 -33.501 -13.5
c-12.667 0 -23.334 4.33301 -32.001 13s-13 19.334 -13 32.001c0 3.33301 0.166992 6.5 0.5 9.5s1.5 6.5 3.5 10.5h-1c12 26 27.5 49.5 46.5 70.5s40.333 38.667 64 53s49.167 25.5 76.5 33.5s55.333 12 84 12c30.667 0 62.167 -5.5 94.5 -16.5s61.666 -26.667 87.999 -47
s47.833 -44.833 64.5 -73.5s25 -60.334 25 -95.001c0 -27.333 -4.5 -54.166 -13.5 -80.499s-21.5 -50.5 -37.5 -72.5c23.333 -23.333 40.666 -49.5 51.999 -78.5s17 -59.833 17 -92.5z" />
    <glyph glyph-name="four" unicode="4" 
d="M592 260c0 -11.333 -2.83594 -20.333 -8.50293 -27s-12.5 -11.5 -20.5 -14.5s-16.667 -4.66699 -26 -5s-18 -0.5 -26 -0.5h-8h-27h-22c-6.66699 0 -13.834 0.166992 -21.501 0.5s-16.5 0.5 -26.5 0.5v-207c0 -13.333 -4.66699 -24.166 -14 -32.499s-20 -12.5 -32 -12.5
c-12.667 0 -23.334 4.16699 -32.001 12.5s-13 19.166 -13 32.499v210c-22.667 1.33301 -45.334 2 -68.001 2h-67c-10 0 -19.667 -0.166992 -29 -0.5s-18.666 -0.833008 -27.999 -1.5s-19.166 -1.16699 -29.499 -1.5s-20.166 -0.5 -29.499 -0.5
c-13.333 0 -24.5 3.5 -33.5 10.5s-13.5 18.167 -13.5 33.5c0 8 2 16 6 24l286 489c12.667 17.333 26.667 26 42 26c11.333 0 22 -4.16699 32 -12.5s15 -19.166 15 -32.499c0 -3.33301 -0.333008 -7 -1 -11s-2.66699 -8.33301 -6 -13l-123.5 -209.5l-123.5 -210.5h29h38h34
c10.667 0 21.5 -0.166992 32.5 -0.5s23.5 -0.833008 37.5 -1.5v81c0 13.333 4.33301 24.166 13 32.499s19.334 12.5 32.001 12.5c12 0 22.667 -4.16699 32 -12.5s14 -19.166 14 -32.499v-84c10.667 -0.666992 21.334 -1 32.001 -1h33h17c6 0 12 0.333008 18 1
c6 0 12.333 0.166992 19 0.5s13.334 0.5 20.001 0.5c13.333 0 24.5 -3.83301 33.5 -11.5s13.5 -18.834 13.5 -33.501z" />
    <glyph glyph-name="five" unicode="5" 
d="M610 261c0 -40.667 -8.00195 -79.001 -24.002 -115.001s-37.667 -67.667 -65 -95s-59.166 -49 -95.499 -65s-74.833 -24 -115.5 -24c-38.667 0 -75 7.33301 -109 22s-63.833 34.5 -89.5 59.5s-46 54.167 -61 87.5s-22.5 68.666 -22.5 105.999
c0 13.333 4.33301 24.166 13 32.499s19.334 12.5 32.001 12.5c11.333 0 22 -4.16699 32 -12.5s15 -19.166 15 -32.499c0 -25.333 5 -49.166 15 -71.499s23.667 -41.833 41 -58.5s37.5 -29.667 60.5 -39s47.5 -14 73.5 -14c28.667 0 55.5 5.33301 80.5 16
s47 25.334 66 44.001s34 40.667 45 66s16.5 52.333 16.5 81c0 26.667 -6.16699 51 -18.5 73s-28.5 40.5 -48.5 55.5s-42.667 26.667 -68 35s-50.666 12.5 -75.999 12.5c-19.333 0 -36.5 -0.833008 -51.5 -2.5s-29.167 -4.66699 -42.5 -9s-26.166 -10.333 -38.499 -18
s-25.833 -17.5 -40.5 -29.5l-2 -1c-6 -3.33301 -11.5 -6.16602 -16.5 -8.49902s-9.83301 -3.5 -14.5 -3.5c-14.667 0 -26 4.66699 -34 14s-11.667 20.333 -11 33c0 0.666992 0.166992 1.33398 0.5 2.00098s0.5 1.33398 0.5 2.00098c0.666992 11.333 1.5 22.5 2.5 33.5
s2.16699 21.833 3.5 32.5c2 18 3.66699 35.833 5 53.5s2 35.5 2 53.5c0 10.667 -1 22.334 -3 35.001l-6 39c-2 13.333 -3.83301 26.666 -5.5 39.999s-2.5 27.666 -2.5 42.999c0 7.33301 0.5 15.166 1.5 23.499s3.33301 15.833 7 22.5s8.66699 12.167 15 16.5
s14.833 6.5 25.5 6.5c11.333 0 22.5 -0.166992 33.5 -0.5s22.167 -0.5 33.5 -0.5c11.333 -0.666992 22.666 -1 33.999 -1h35c22 0 43.833 0.166992 65.5 0.5s43.5 0.5 65.5 0.5c20 0.666992 42.667 1 68 1h70c12.667 0 23.334 -3.83301 32.001 -11.5s13 -18.5 13 -32.5
c0 -13.333 -4.33301 -24.333 -13 -33s-19.334 -13 -32.001 -13c-23.333 0 -46.333 -0.166992 -69 -0.5s-45.667 -0.833008 -69 -1.5s-46.666 -1 -69.999 -1h-69h-54h-9h-4h-4h-9c0 -1.33301 0.333008 -3.33301 1 -6s1 -4.66699 1 -6l6 -58c2 -19.333 3 -40.333 3 -63v-24
v-17c0 -5.33301 -0.166992 -11.166 -0.5 -17.499s-0.833008 -14.833 -1.5 -25.5c23.333 9.33301 47.5 15.666 72.5 18.999s50.167 5 75.5 5c37.333 0 74.166 -6.33301 110.499 -19s68.666 -30.834 96.999 -54.501s51.333 -52 69 -85s26.5 -69.5 26.5 -109.5z" />
    <glyph glyph-name="six" unicode="6" 
d="M491 210c0 24.667 -5.00195 47.332 -15.002 67.999s-23.5 38.5 -40.5 53.5s-36.5 26.667 -58.5 35s-45 12.5 -69 12.5c-23.333 0 -45.666 -4.16699 -66.999 -12.5s-40.333 -20 -57 -35s-30 -32.5 -40 -52.5s-15 -42 -15 -66s4.83301 -46.167 14.5 -66.5
s22.834 -37.833 39.501 -52.5s35.667 -26.167 57 -34.5s44 -12.5 68 -12.5c22.667 0 45 4 67 12s41.5 19.333 58.5 34s30.833 31.834 41.5 51.501s16 41.5 16 65.5zM581.998 209.998c0 -37.333 -7.66504 -71.3301 -22.998 -101.997s-35.833 -57.334 -61.5 -80.001
s-55 -40.167 -88 -52.5s-66.833 -18.5 -101.5 -18.5c-32 0 -62.5 5.16699 -91.5 15.5s-55.167 24.833 -78.5 43.5s-43.333 41.167 -60 67.5s-28.667 55.166 -36 86.499c-5.33301 21.333 -9 43.333 -11 66s-3 44.667 -3 66c0 29.333 3.66699 62.166 11 98.499s18 73 32 110
s31.167 73.167 51.5 108.5s43.5 66.666 69.5 93.999s54.667 49.333 86 66s64.666 25 99.999 25c13.333 0 24.333 -4.16699 33 -12.5s13 -19.166 13 -32.499c0 -14.667 -3.66699 -25 -11 -31s-16.666 -10.667 -27.999 -14c-2.66699 -0.666992 -6 -1 -10 -1
c-3.33301 0 -6 -0.333008 -8 -1c-9.33301 -1.33301 -17.833 -2.83301 -25.5 -4.5s-17.167 -5.5 -28.5 -11.5c-21.333 -11.333 -41.5 -27.5 -60.5 -48.5s-36.333 -44.833 -52 -71.5s-29.334 -54.667 -41.001 -84s-20.834 -57.666 -27.501 -84.999
c24.667 20 52.667 35.333 84 46s62 16 92 16c36 0 70.5 -6.5 103.5 -19.5s62.167 -31.167 87.5 -54.5s45.5 -50.833 60.5 -82.5s22.5 -65.834 22.5 -102.501z" />
    <glyph glyph-name="seven" unicode="7" 
d="M630 757c0 -9.33301 -3.00195 -18.333 -9.00195 -27l-197 -294c16.667 0 34 1 52 3c2 0 3.83301 0.166992 5.5 0.5s3.5 0.5 5.5 0.5c3.33301 0.666992 7.16602 1.16699 11.499 1.5s9.16602 0.5 14.499 0.5c12.667 0 23.834 -3.83301 33.501 -11.5
s14.5 -18.834 14.5 -33.501c0 -12.667 -3.33301 -22.334 -10 -29.001s-15.667 -11.667 -27 -15c-12.667 -3.33301 -26.5 -5.5 -41.5 -6.5s-30.833 -1.5 -47.5 -1.5h-26c-8.66699 0 -16.667 0.333008 -24 1c-6 0 -9.5 0.166992 -10.5 0.5s-4.16699 0.5 -9.5 0.5l-123 -183
l-123 -182c-10 -13.333 -22.667 -20 -38 -20c-12.667 0 -23.334 4.33301 -32.001 13s-13 19.334 -13 32.001c0 6 0.666992 10.833 2 14.5s3 7.16699 5 10.5l215 320c-12.667 0.666992 -25.667 1 -39 1h-39c-5.33301 0 -10 -0.166992 -14 -0.5s-8.33301 -0.5 -13 -0.5h-27
c-13.333 0 -24.333 3.83301 -33 11.5s-13 18.834 -13 33.501c0 10.667 2 19.167 6 25.5s9.16699 11 15.5 14s13.166 4.83301 20.499 5.5s14 1 20 1c32 0 61.167 -0.333008 87.5 -1s55.166 -1.66699 86.499 -3l46.5 68.5l42.5 62.5l42.5 63.5l47.5 70.5h-50
c-27.333 0 -54.666 0.333008 -81.999 1s-54.666 1.66699 -81.999 3s-54.166 2.33301 -80.499 3s-53.166 1 -80.499 1c-8 0 -15.5 -0.166992 -22.5 -0.5s-14.5 -0.5 -22.5 -0.5c-7.33301 -0.666992 -15.666 -1 -24.999 -1h-24c-13.333 0 -24.333 4.16699 -33 12.5
s-13 19.166 -13 32.499c0 12 2.83301 21.333 8.5 28s12.834 11.5 21.501 14.5s17.667 4.5 27 4.5h26h8c31.333 0 62.5 -0.333008 93.5 -1s62.167 -1.66699 93.5 -3s62 -2.33301 92 -3s61 -1 93 -1c21.333 0 44 1 68 3c11.333 0.666992 23.333 1.33398 36 2.00098s25 1 37 1
s22.667 -3.83301 32 -11.5s14 -18.167 14 -31.5z" />
    <glyph glyph-name="eight" unicode="8" 
d="M453 578c0 20 -4.33105 38.167 -12.998 54.5s-20.334 30.5 -35.001 42.5s-31.167 21.167 -49.5 27.5s-36.833 9.5 -55.5 9.5s-37 -3.16699 -55 -9.5s-34 -15.166 -48 -26.499s-25.333 -25 -34 -41s-13 -33.667 -13 -53c0 -18.667 3.83301 -35.834 11.5 -51.501
s18 -29.334 31 -41.001s28 -20.667 45 -27s34.5 -9.5 52.5 -9.5c3.33301 0 7 -0.166992 11 -0.5s7.66699 -0.5 11 -0.5c3.33301 -0.666992 6 -1 8 -1h6c1.33301 0 5.66602 1.16699 12.999 3.5s12 4.16602 14 5.49902c26.667 10.667 50 25.834 70 45.501s30 43.834 30 72.501
zM501.002 207c0 18.667 -3.66895 35.667 -11.002 51s-17.333 29 -30 41s-27 22.167 -43 30.5s-32.333 15.166 -49 20.499c-4 1.33301 -11 3.16602 -21 5.49902s-16.667 3.5 -20 3.5h-1c-3.33301 -2 -6.66602 -3 -9.99902 -3c-8 -1.33301 -16.833 -2.16602 -26.5 -2.49902
s-18.834 -0.5 -27.501 -0.5c-21.333 0 -41.333 -4.33301 -60 -13s-35 -20.167 -49 -34.5s-25 -31.166 -33 -50.499s-12 -39.666 -12 -60.999c0 -23.333 6.5 -43.833 19.5 -61.5s29.333 -32.5 49 -44.5s41.167 -21 64.5 -27s45.666 -9 66.999 -9
c22.667 0 45.334 3.5 68.001 10.5s43.334 17.167 62.001 30.5s33.834 29.666 45.501 48.999s17.5 41 17.5 65zM592 207c0 -37.333 -8.33496 -71.1748 -25.002 -101.508s-38.5 -56.166 -65.5 -77.499s-57.5 -37.666 -91.5 -48.999s-68 -17 -102 -17c-32 0 -65.167 5 -99.5 15
s-65.666 24.833 -93.999 44.5s-51.666 43.834 -69.999 72.501s-27.5 62 -27.5 100c0 22.667 3 44.834 9 66.501s14.5 41.834 25.5 60.501s24.333 35.834 40 51.501s33.167 28.834 52.5 39.501c-25.333 20 -45.833 44.667 -61.5 74s-23.5 61.333 -23.5 96
c0 32.667 6.83301 62.5 20.5 89.5s31.667 50.167 54 69.5s48 34.333 77 45s58.833 16 89.5 16c31.333 0 61.666 -5.5 90.999 -16.5s55.333 -26.333 78 -46s40.834 -43.167 54.501 -70.5s20.5 -57.666 20.5 -90.999c0 -34.667 -8.66699 -66 -26 -94
s-38.666 -51.667 -63.999 -71c39.333 -20 72.166 -47.167 98.499 -81.5s39.5 -75.833 39.5 -124.5z" />
    <glyph glyph-name="nine" unicode="9" 
d="M480 542c0 24.667 -5.16504 47.335 -15.498 68.002s-24 38.5 -41 53.5s-36.5 26.667 -58.5 35s-44.667 12.5 -68 12.5c-22.667 0 -44.834 -4.16699 -66.501 -12.5s-40.834 -20 -57.501 -35s-30.167 -32.5 -40.5 -52.5s-15.5 -42 -15.5 -66s5 -46.333 15 -67
s23.333 -38.5 40 -53.5s35.834 -26.667 57.501 -35s44.167 -12.5 67.5 -12.5c22.667 0 45 4.16699 67 12.5s41.667 19.666 59 33.999s31.166 31.666 41.499 51.999s15.5 42.5 15.5 66.5zM583.002 432.001c0 -31.333 -3.99609 -64.6641 -11.9961 -99.9971
s-19.333 -70.5 -34 -105.5s-32.667 -68.333 -54 -100s-45.333 -59.667 -72 -84s-56.167 -43.833 -88.5 -58.5s-66.5 -22 -102.5 -22c-13.333 0 -24.333 4.16699 -33 12.5s-13 19.166 -13 32.499c0 26 13.333 41 40 45c3.33301 0.666992 6.66602 1.16699 9.99902 1.5
s6.66602 0.833008 9.99902 1.5c10 1.33301 19.167 2.83301 27.5 4.5s17.5 4.5 27.5 8.5c25.333 10.667 48.333 26.167 69 46.5s39.167 43.5 55.5 69.5s30.166 53.833 41.499 83.5s20.333 59.167 27 88.5c-25.333 -22.667 -54.166 -39.834 -86.499 -51.501
s-65.166 -17.5 -98.499 -17.5c-36 0 -70.333 6.5 -103 19.5s-61.5 31 -86.5 54s-44.833 50.167 -59.5 81.5s-22 65.666 -22 102.999c0 36.667 7.5 70.5 22.5 101.5s35.167 58 60.5 81s54.166 41 86.499 54s66.166 19.5 101.499 19.5c37.333 0 72.166 -6 104.499 -18
s61.5 -31 87.5 -57c19.333 -19.333 35 -40.833 47 -64.5s21.5 -48.167 28.5 -73.5s11.833 -51.333 14.5 -78s4 -52.667 4 -78z" />
    <glyph glyph-name="colon" unicode=":" horiz-adv-x="296" 
d="M199 37c0 -19.333 -7.16699 -35.5 -21.5 -48.5s-30.833 -19.5 -49.5 -19.5s-35 6.5 -49 19.5s-21 29.167 -21 48.5s7 35.5 21 48.5s30.333 19.5 49 19.5s35.167 -6.5 49.5 -19.5s21.5 -29.167 21.5 -48.5zM199 236c0 -19.333 -7.16699 -35.5 -21.5 -48.5
s-30.833 -19.5 -49.5 -19.5s-35 6.5 -49 19.5s-21 29.167 -21 48.5s7 35.666 21 48.999s30.333 20 49 20s35.167 -6.66699 49.5 -20s21.5 -29.666 21.5 -48.999z" />
    <glyph glyph-name="semicolon" unicode=";" horiz-adv-x="169" 
d="M173 235c0 -19.333 -7 -35.666 -21 -48.999s-30.333 -20 -49 -20s-35.167 6.66699 -49.5 20s-21.5 29.666 -21.5 48.999s7.16699 35.833 21.5 49.5s30.833 20.5 49.5 20.5s35 -7 49 -21s21 -30.333 21 -49zM147 23c0 -25.333 -3.16504 -51.501 -9.49805 -78.501
s-16 -52 -29 -75s-29.333 -41.833 -49 -56.5s-42.834 -22 -69.501 -22c-11.333 0 -21.166 4.16699 -29.499 12.5s-12.5 18.833 -12.5 31.5s4.16699 23.167 12.5 31.5s18.166 12.5 29.499 12.5c8 0 15.333 2.5 22 7.5s12.667 11.333 18 19s10 16.334 14 26.001
s7.33301 19.167 10 28.5v-1c5.33301 22.667 8 44 8 64c0 12.667 4.16699 23.167 12.5 31.5s18.166 12.5 29.499 12.5c10.667 0 20.5 -4.16699 29.5 -12.5s13.5 -18.833 13.5 -31.5z" />
    <glyph glyph-name="less" unicode="&#x3c;" horiz-adv-x="473" 
d="M310 161c0 -12.667 -5 -23.332 -15 -31.999s-20.667 -13 -32 -13c-14 0 -26 6 -36 18l-145 190l2 -3c-5.33301 5.33301 -8.33301 10.5 -9 15.5s-1 9.83301 -1 14.5s0.333008 9.5 1 14.5s3.66699 10.167 9 15.5l-2 -3l72.5 94.5l72.5 94.5c8.66699 12 20.667 18 36 18
c11.333 0 22 -4.33301 32 -13s15 -19.334 15 -32.001c0 -11.333 -4 -21 -12 -29l2 3l-63 -81.5l-63 -81.5l63 -80.5l62 -80.5c7.33301 -11.333 11 -21 11 -29z" />
    <glyph glyph-name="equal" unicode="=" horiz-adv-x="869" 
d="M678 294c0 -12.667 -4.66699 -23.167 -14 -31.5s-20 -12.5 -32 -12.5h-394c-12.667 0 -23.334 4.16699 -32.001 12.5s-13 18.833 -13 31.5c0 13.333 4.33301 23.833 13 31.5s19.334 11.5 32.001 11.5h394c12 0 22.667 -3.83301 32 -11.5s14 -18.167 14 -31.5zM678 400
c0 -13.333 -4.66699 -23.833 -14 -31.5s-20 -11.5 -32 -11.5h-395c-29.333 0 -44 14.333 -44 43c0 29.333 14.667 44 44 44h395c12 0 22.667 -4.16699 32 -12.5s14 -18.833 14 -31.5z" />
    <glyph glyph-name="greater" unicode="&#x3e;" horiz-adv-x="473" 
d="M401 354c0 -3.33301 -0.667969 -7.33398 -2.00098 -12.001s-3.66602 -9.33398 -6.99902 -14.001l-146 -191c-9.33301 -11.333 -21.333 -17 -36 -17c-12 0 -22.667 4.33301 -32 13s-14 19.334 -14 32.001s3.66699 22.667 11 30l-2 -3l63 81l63 81l-63.5 81.5l-62.5 81.5
l2 -3c-7.33301 7.33301 -11 17.333 -11 30s4.66699 23.334 14 32.001s20 13 32 13c14.667 0 26.667 -6 36 -18l146 -190l-2 3c7.33301 -7.33301 11 -17.333 11 -30z" />
    <glyph glyph-name="question" unicode="?" horiz-adv-x="533" 
d="M306 39c0 -18.667 -7 -35 -21 -49s-30.333 -21 -49 -21s-35.167 6.83301 -49.5 20.5s-21.5 30.167 -21.5 49.5s7.16699 35.666 21.5 48.999s30.833 20 49.5 20s35 -6.66699 49 -20s21 -29.666 21 -48.999zM495 580c0 -28 -4.16406 -52.5039 -12.4971 -73.5039
s-19.333 -39.333 -33 -55s-29 -29.334 -46 -41.001l-50.5 -33.5c-18.667 -11.333 -36 -23.5 -52 -36.5s-27 -26.5 -33 -40.5c-6.66699 -18 -10 -38 -10 -60c0 -9.33301 1.66699 -19.666 5 -30.999c1.33301 -7.33301 3 -14.333 5 -21s3 -13.667 3 -21
c0 -13.333 -5.16699 -24.666 -15.5 -33.999s-21.5 -14 -33.5 -14c-14.667 0 -25.834 4.83301 -33.501 14.5s-11.5 20.834 -11.5 33.501c0 2 -0.5 6.33301 -1.5 13s-2.16699 13 -3.5 19c-3.33301 14.667 -5 28.334 -5 41.001c0 29.333 3 54 9 74s14.333 37.333 25 52
s23.667 27.834 39 39.501l51 37.5v-1c5.33301 3.33301 10.5 6.83301 15.5 10.5l15.5 11.5c21.333 14.667 40.333 31 57 49s25 40.333 25 67c0 22 -5.33301 41 -16 57s-24.167 29.167 -40.5 39.5s-34.833 18.166 -55.5 23.499s-41 8 -61 8s-40 -2.66699 -60 -8
s-38.333 -13.166 -55 -23.499s-30.167 -23.5 -40.5 -39.5s-15.5 -35 -15.5 -57c0 -12.667 -4.66699 -23.334 -14 -32.001s-20 -13 -32 -13c-12.667 0 -23.334 4.33301 -32.001 13s-13 19.334 -13 32.001c0 36 7.66699 67.667 23 95s35.5 50.166 60.5 68.499
s53.167 32 84.5 41s62.666 13.5 93.999 13.5s62.833 -4.5 94.5 -13.5s60 -22.667 85 -41s45.333 -41.166 61 -68.499s23.5 -59 23.5 -95z" />
    <glyph glyph-name="at" unicode="@" horiz-adv-x="766" 
d="M470 396c0 12.667 -2.33301 25 -7 37s-11 22.667 -19 32s-17.667 16.666 -29 21.999s-23.666 8 -36.999 8s-25.5 -2.66699 -36.5 -8s-20.5 -12.666 -28.5 -21.999s-14.333 -20 -19 -32s-7 -24.333 -7 -37c0 -13.333 2.33301 -25.833 7 -37.5s11 -22.167 19 -31.5
s17.5 -16.666 28.5 -21.999s23.167 -8 36.5 -8s25.666 2.66699 36.999 8s21 12.666 29 21.999s14.333 19.833 19 31.5s7 24.167 7 37.5zM743 400c0 -22 -3.50293 -44.4932 -10.5029 -67.4932s-17.5 -43.667 -31.5 -62s-31 -33.5 -51 -45.5s-43 -18 -69 -18
c-18 0 -35 3.5 -51 10.5s-29.333 17.167 -40 30.5c-15.333 -12.667 -32.5 -22.667 -51.5 -30s-39.167 -11 -60.5 -11c-26 0 -50 5.16699 -72 15.5s-41.167 24.166 -57.5 41.499s-29.166 37.333 -38.499 60s-14 46.667 -14 72c0 24.667 4.66699 48.5 14 71.5
s22.166 43.167 38.499 60.5s35.5 31.166 57.5 41.499s46 15.5 72 15.5c34 0 66 -9.33301 96 -28c2.66699 7.33301 7.16699 13.333 13.5 18s15.5 7 27.5 7s22.667 -4.33301 32 -13s14 -19.334 14 -32.001v-223c0 -11.333 6.66699 -17 20 -17c11.333 0 21.333 3.33301 30 10
s16 15.167 22 25.5s10.5 21.5 13.5 33.5s4.5 23.333 4.5 34c0 36.667 -7.16699 70.834 -21.5 102.501s-33.666 59.167 -57.999 82.5s-52.833 41.833 -85.5 55.5s-67 20.5 -103 20.5s-70.167 -6.83301 -102.5 -20.5s-60.666 -32.167 -84.999 -55.5
s-43.666 -50.833 -57.999 -82.5s-21.5 -65.834 -21.5 -102.501s7.16699 -70.834 21.5 -102.501s33.666 -59.334 57.999 -83.001s52.666 -42.334 84.999 -56.001s66.5 -20.5 102.5 -20.5c12 0 22.667 -4.33301 32 -13s14 -19.334 14 -32.001s-4.66699 -23.334 -14 -32.001
s-20 -13 -32 -13c-48.667 0 -94.667 9.16699 -138 27.5s-81.333 43.333 -114 75s-58.5 68.834 -77.5 111.501s-28.5 88.667 -28.5 138s9.5 95.333 28.5 138s44.833 79.834 77.5 111.501s70.667 56.5 114 74.5s89.333 27 138 27s94.834 -9 138.501 -27
s81.834 -42.833 114.501 -74.5s58.667 -68.834 78 -111.501s29 -88.667 29 -138z" />
    <glyph glyph-name="A" unicode="A" horiz-adv-x="733" 
d="M368 701c0 7.33301 -0.168945 18.1689 -0.501953 32.502s-1.16602 28.5 -2.49902 42.5s-3.33301 26.167 -6 36.5s-6.66699 15.5 -12 15.5c-8 0 -14.5 -4.83301 -19.5 -14.5s-8.83301 -21.334 -11.5 -35.001s-4.5 -27.834 -5.5 -42.501s-1.5 -26.667 -1.5 -36
c0 -14.667 -0.166992 -29.334 -0.5 -44.001s-0.833008 -29.667 -1.5 -45c0 -7.33301 -0.166992 -13.666 -0.5 -18.999s-0.666016 -10.333 -0.999023 -15s-0.5 -9.66699 -0.5 -15v-18c8.66699 -2 16 -4 22 -6s11.667 -4 17 -6l15 -6l6 87.5c2 29 3 58.167 3 87.5z
M725.998 188.003c0 -31.333 -4.99805 -60.667 -14.998 -88s-23.833 -51.5 -41.5 -72.5s-38.334 -37.5 -62.001 -49.5s-49.5 -18 -77.5 -18c-28.667 0 -53 5.66699 -73 17s-36.667 26.333 -50 45s-24 40.167 -32 64.5s-13.833 49.666 -17.5 75.999s-6 52.5 -7 78.5
s-1.5 50 -1.5 72c0 22.667 0.166992 42 0.5 58s1.16602 35 2.49902 57c-6.66699 2 -14 4.66699 -22 8c-4 1.33301 -6.66699 2.16602 -8 2.49902s-2.5 0.833008 -3.5 1.5s-2.33301 1.16699 -4 1.5s-4.83398 1.16602 -9.50098 2.49902v-71
c0 -31.333 -0.833008 -63.166 -2.5 -95.499s-5 -63.833 -10 -94.5s-12.5 -59.5 -22.5 -86.5s-23.5 -50.667 -40.5 -71s-38 -36.333 -63 -48s-55.167 -17.5 -90.5 -17.5c-12 0 -25.167 2 -39.5 6s-27.5 10 -39.5 18s-22 18.5 -30 31.5s-12 28.5 -12 46.5
c0 12.667 2.33301 24.5 7 35.5s10.834 20.667 18.501 29s16.667 14.833 27 19.5s21.166 7 32.499 7c13.333 0 24.333 -4.16699 33 -12.5s13 -20.166 13 -35.499c0 -16 -3.5 -27 -10.5 -33s-15.167 -10.667 -24.5 -14c3.33301 -1.33301 7.33301 -2 12 -2h13
c32.667 0 58.334 10.167 77.001 30.5s32.5 45.666 41.5 75.999s14.5 63.333 16.5 99s3 68.5 3 98.5v96c-4.66699 -1.33301 -8.83398 -3.33301 -12.501 -6s-7.16699 -5 -10.5 -7l1 1c-5.33301 -4 -10.5 -7.33301 -15.5 -10s-10.5 -4 -16.5 -4
c-12.667 0 -23.334 4.83301 -32.001 14.5s-13 20.834 -13 33.501c0 14.667 4.66699 26.667 14 36v-1c12 13.333 25.333 23.333 40 30s29.667 10.667 45 12c0 10.667 0.166992 21 0.5 31s0.833008 20 1.5 30c0.666992 14 1.16699 27.833 1.5 41.5s0.5 27.834 0.5 42.501
c0 20.667 1.83301 44 5.5 70s10.334 50.5 20.001 73.5s22.834 42.333 39.501 58s38 23.5 64 23.5c26.667 0 47.5 -8.33301 62.5 -25s26.167 -36.834 33.5 -60.501s11.833 -48.667 13.5 -75s2.5 -49.166 2.5 -68.499c0 -28 -0.833008 -55.5 -2.5 -82.5
s-3.5 -54.167 -5.5 -81.5c0 -4 -0.166992 -6.66699 -0.5 -8s-0.5 -2.66602 -0.5 -3.99902c0 -0.666992 -0.166992 -1.83398 -0.5 -3.50098s-0.5 -4.5 -0.5 -8.5h1c5.33301 0 10.333 2 15 6s9.33398 8.33301 14.001 13c6.66699 6.66699 13 12.167 19 16.5s13.667 6.5 23 6.5
c12 0 22.667 -5.16699 32 -15.5s14 -21.5 14 -33.5c0 -5.33301 -1 -11 -3 -17s-5.66699 -11.667 -11 -17v1c-13.333 -14.667 -28.833 -27.667 -46.5 -39s-36.5 -17 -56.5 -17h-8c-2 -36 -3 -71.667 -3 -107c0 -21.333 0.5 -46.166 1.5 -74.499s4.33301 -55.5 10 -81.5
s14.667 -48 27 -66s29.833 -27 52.5 -27c14.667 0 28.5 3.66699 41.5 11s24.167 17 33.5 29s16.666 26 21.999 42s8 32.667 8 50c0 8 -2 15.667 -6 23s-9 11 -15 11l-2 -8c-3.33301 -11.333 -7.33301 -21.166 -12 -29.499s-15.667 -12.5 -33 -12.5
c-12.667 0 -23.334 4.16699 -32.001 12.5s-13 20.166 -13 35.499c0 29.333 9.16699 53 27.5 71s39.833 27 64.5 27c16.667 0 31.834 -3.66699 45.501 -11s25.5 -17 35.5 -29s17.667 -25.833 23 -41.5s8 -31.834 8 -48.501z" />
    <glyph glyph-name="B" unicode="B" horiz-adv-x="750" 
d="M399 817c0 -13.333 -4.66602 -24.668 -13.999 -34.001s-20 -14 -32 -14c-2.66699 0 -4.66699 -8.66699 -6 -26s-2.5 -38.166 -3.5 -62.499s-1.66699 -50 -2 -77s-0.5 -49.833 -0.5 -68.5v-18c10.667 11.333 23.167 20.333 37.5 27s27.166 10 38.499 10
c15.333 0 31.5 -1.5 48.5 -4.5s32.833 -6.5 47.5 -10.5c22 34.667 33 74 33 118c0 25.333 -6.66699 49.333 -20 72c-13.333 25.333 -31.5 45 -54.5 59s-47.167 24.667 -72.5 32v-3zM343.001 324.998c0 -8.66699 -0.166016 -17.1689 -0.499023 -25.502s-0.5 -16.5 -0.5 -24.5
c12 13.333 26.167 23.833 42.5 31.5s33.833 11.5 52.5 11.5c13.333 0 24.333 -4.66699 33 -14s13 -20.666 13 -33.999s-4.33301 -24.666 -13 -33.999s-19.667 -14 -33 -14s-24.166 -5.66699 -32.499 -17s-12.5 -24.666 -12.5 -39.999c0 -14.667 2 -28.667 6 -42
s9.5 -25 16.5 -35s15.667 -17.833 26 -23.5s21.5 -8.5 33.5 -8.5c23.333 0 45 5 65 15s37.167 23.833 51.5 41.5s25.5 38.167 33.5 61.5s12 48.333 12 75c0 37.333 -9.33301 71.166 -28 101.499s-42 54.5 -70 72.5c-16.667 -14 -36.334 -24.833 -59.001 -32.5
s-43.334 -11.5 -62.001 -11.5c-11.333 0 -24 3 -38 9s-26.333 14.667 -37 26v-3c0 -14.667 0.166992 -29.167 0.5 -43.5s0.5 -28.5 0.5 -42.5zM727.002 248.996c0 -40.667 -6.33203 -78.501 -18.999 -113.501s-30.334 -65.5 -53.001 -91.5s-49.334 -46.5 -80.001 -61.5
s-64.334 -22.5 -101.001 -22.5c-20 0 -38.833 3.5 -56.5 10.5s-33.5 16.667 -47.5 29s-26.167 26.833 -36.5 43.5s-18.166 35 -23.499 55c-8 -20 -17.667 -38.5 -29 -55.5s-24.833 -31.5 -40.5 -43.5s-33.834 -21.5 -54.501 -28.5s-44 -10.5 -70 -10.5
c-12 0 -25.167 2 -39.5 6s-27.5 10 -39.5 18s-22 18.5 -30 31.5s-12 28.5 -12 46.5c0 12 2.33301 23.833 7 35.5s10.834 22 18.501 31s16.667 16.333 27 22s21.166 8.5 32.499 8.5c13.333 0 24.333 -4.83301 33 -14.5s13 -21.167 13 -34.5c0 -18 -3.83301 -29.667 -11.5 -35
s-16.167 -9.33301 -25.5 -12c-0.666992 0 -1 -0.333008 -1 -1h-1h-1c0 -2.66699 3.83301 -4.33398 11.5 -5.00098s13.834 -1 18.501 -1c30.667 0 54.834 8.5 72.501 25.5s31.167 38.667 40.5 65s15.333 55.333 18 87s4 62.167 4 91.5v50c0 16.667 -0.333008 33.667 -1 51
s-1.16699 34.833 -1.5 52.5s-0.5 35.167 -0.5 52.5c0 13.333 0.333008 33.166 1 59.499s2.5 54.333 5.5 84s7.83301 58.834 14.5 87.501s16.334 52 29.001 70c-33.333 -2 -66 -9 -98 -21c-19.333 -6.66699 -38.166 -16.167 -56.499 -28.5s-34.833 -27.166 -49.5 -44.499
s-26.334 -36.666 -35.001 -57.999s-13 -44 -13 -68c0 -8.66699 2 -17 6 -25s9.16699 -15.167 15.5 -21.5s13.166 -11.5 20.499 -15.5s14.666 -6 21.999 -6c8 0 15 2.83301 21 8.5s11.167 12.667 15.5 21s7.5 17.5 9.5 27.5s3 19.667 3 29c0 15.333 4.33301 27.166 13 35.499
s19.334 12.5 32.001 12.5c13.333 0 24.333 -4.16699 33 -12.5s13 -20.166 13 -35.499c0 -21.333 -3.16699 -42.666 -9.5 -63.999s-15.5 -40.666 -27.5 -57.999s-26.667 -31.5 -44 -42.5s-37 -16.5 -59 -16.5c-18.667 0 -37.167 4.33301 -55.5 13s-34.833 20.5 -49.5 35.5
s-26.667 32.333 -36 52s-14 40.5 -14 62.5c0 52 11.167 97.667 33.5 137s50.833 72.333 85.5 99s72.834 46.667 114.501 60s82.167 20 121.5 20c35.333 0 72.166 -5 110.499 -15s73.5 -25.667 105.5 -47s58.5 -49.333 79.5 -84s31.5 -76.334 31.5 -125.001
c0 -28 -3.33301 -55.833 -10 -83.5s-16.334 -53.167 -29.001 -76.5c38.667 -27.333 69.834 -61.833 93.501 -103.5s35.5 -89.834 35.5 -144.501z" />
    <glyph glyph-name="C" unicode="C" horiz-adv-x="540" 
d="M66 603c12 42 28 82.8311 48 122.498s44 75.5 72 107.5c-17.333 -0.666992 -34.333 -4.5 -51 -11.5s-31.667 -16.5 -45 -28.5s-24 -26.667 -32 -44s-12 -36.333 -12 -57c0 -15.333 1.66699 -30.666 5 -45.999s8.33301 -29.666 15 -42.999zM409 780.998
c0 12 -2.49805 23.668 -7.49805 35.001s-12.167 17 -21.5 17c-31.333 0 -59.5 -8.83301 -84.5 -26.5s-47.333 -40.334 -67 -68.001s-36.334 -58.5 -50.001 -92.5s-24.5 -67.333 -32.5 -100h11c28.667 0 58 5.33301 88 16s57.167 26.167 81.5 46.5s44.166 45 59.499 74
s23 61.833 23 98.5zM533.002 179.999c0 -33.333 -6.49707 -63.666 -19.4971 -90.999s-30 -50.5 -51 -69.5s-44.833 -33.667 -71.5 -44s-53.334 -15.5 -80.001 -15.5c-44 0 -83.333 10.833 -118 32.5s-64.167 50.167 -88.5 85.5s-42.833 75 -55.5 119s-19 88.667 -19 134
c0 27.333 0.833008 54.333 2.5 81s4.5 52.667 8.5 78c-30.667 23.333 -52.667 52.833 -66 88.5s-20 73.5 -20 113.5c0 36 6.83301 68.5 20.5 97.5s31.834 53.833 54.501 74.5s48 36.667 76 48s56.667 17 86 17c12 0 22.667 -4.66699 32 -14s14 -20.666 14 -33.999
c20.667 15.333 42.667 27.166 66 35.499s48.666 12.5 75.999 12.5c18.667 0 35.5 -4.16699 50.5 -12.5s27.667 -19.5 38 -33.5s18.166 -29.833 23.499 -47.5s8 -35.834 8 -54.501c0 -51.333 -10.167 -97.5 -30.5 -138.5s-46.833 -75.833 -79.5 -104.5
s-69.5 -50.5 -110.5 -65.5s-81.833 -22.5 -122.5 -22.5c-5.33301 0 -10.333 0.166992 -15 0.5s-9.33398 0.833008 -14.001 1.5c-2.66699 -20 -4.5 -40.333 -5.5 -61s-1.5 -40.667 -1.5 -60c0 -32 4.33301 -64.167 13 -96.5s21 -61.833 37 -88.5s35.833 -48.334 59.5 -65.001
s50.5 -25 80.5 -25c15.333 0 30.833 2.83301 46.5 8.5s29.667 13.834 42 24.501s22.5 23.667 30.5 39s12 32.666 12 51.999c0 10.667 -2.5 20.334 -7.5 29.001s-11.5 13 -19.5 13c-6.66699 0 -10.667 -2.66699 -12 -8c-3.33301 -9.33301 -7.5 -17.833 -12.5 -25.5
s-15.167 -11.5 -30.5 -11.5c-12.667 0 -23.334 4.5 -32.001 13.5s-13 21.167 -13 36.5s3.16699 28.666 9.5 39.999s14.333 20.833 24 28.5s20.334 13.334 32.001 17.001s23.167 5.5 34.5 5.5c16.667 0 32.167 -3.83301 46.5 -11.5s26.833 -18 37.5 -31s19 -27.833 25 -44.5
s9 -33.667 9 -51z" />
    <glyph glyph-name="D" unicode="D" horiz-adv-x="696" 
d="M230 686c7.33301 0 14.3311 -1.66699 20.998 -5c3.33301 28.667 8.33301 56.834 15 84.501s16.334 50.167 29.001 67.5c-2 0 -4 0.166992 -6 0.5s-4 0.5 -6 0.5c-27.333 0 -55 -5.33301 -83 -16s-53.5 -25.834 -76.5 -45.501s-41.667 -43.167 -56 -70.5
s-21.5 -58 -21.5 -92c0 -13.333 1.5 -27.5 4.5 -42.5s7.5 -28.667 13.5 -41s13.5 -22.666 22.5 -30.999s19.5 -12.5 31.5 -12.5c13.333 0 24.333 5.5 33 16.5s15.5 24.333 20.5 40s8.5 32.5 10.5 50.5s3 34 3 48c0 15.333 4.33301 27.166 13 35.499s19.334 12.5 32.001 12.5
zM593.998 477c0 37.333 -4.99609 73.1729 -14.9961 107.506s-24 65.833 -42 94.5s-39.167 54.167 -63.5 76.5s-50.833 40.166 -79.5 53.499c-2 -11.333 -7.33301 -20.833 -16 -28.5s-18.334 -11.5 -29.001 -11.5c-2 0 -3.83301 -7.66699 -5.5 -23s-2.83398 -34 -3.50098 -56
s-1.16699 -44.833 -1.5 -68.5s-0.5 -43.834 -0.5 -60.501v-34v-51c0 -16 0.333008 -32.333 1 -49c0.666992 -17.333 1.16699 -34.333 1.5 -51s0.5 -33.667 0.5 -51c0 -44.667 -4.66699 -89.334 -14 -134.001s-26.333 -85.334 -51 -122.001
c13.333 -5.33301 26.666 -8.83301 39.999 -10.5s27.333 -2.5 42 -2.5c30 0 56.833 6.33301 80.5 19s44.167 29.667 61.5 51s32 46 44 74s21.667 57.667 29 89s12.666 63.166 15.999 95.499s5 63.166 5 92.499zM685.002 477.007c0 -38 -2.33691 -77.001 -7.00391 -117.001
s-12.167 -79.167 -22.5 -117.5s-24 -74.666 -41 -108.999s-37.5 -64.333 -61.5 -90s-52.167 -46 -84.5 -61s-69.166 -22.5 -110.499 -22.5c-28 0 -54 3.33301 -78 10s-48.667 15.667 -74 27c-20 -13.333 -40.833 -22.833 -62.5 -28.5s-44.167 -8.5 -67.5 -8.5
c-11.333 0 -24 1.66699 -38 5s-27.167 8.66602 -39.5 15.999s-22.666 17 -30.999 29s-12.5 27 -12.5 45c0 17.333 4.16699 32 12.5 44s18.666 21.833 30.999 29.5s25.5 13.334 39.5 17.001s26.667 5.5 38 5.5c21.333 0 41.333 -4.16699 60 -12.5
s37.334 -17.833 56.001 -28.5c21.333 28.667 36.166 62.167 44.499 100.5s12.5 76.5 12.5 114.5c0 18 -0.166992 36 -0.5 54s-0.833008 36.333 -1.5 55c-0.666992 8 -1 15.667 -1 23c0 8 -0.333008 16 -1 24c-12 -26.667 -28.167 -49 -48.5 -67s-46.5 -27 -78.5 -27
c-26 0 -49.167 6.83301 -69.5 20.5s-37.5 31.167 -51.5 52.5s-24.5 45.333 -31.5 72s-10.5 52.667 -10.5 78c0 48 9.83301 91.667 29.5 131s45.334 73 77.001 101s67 49.667 106 65s77.5 23 115.5 23c54 0 105.333 -12 154 -36s91.334 -56.5 128.001 -97.5
s65.834 -89 87.501 -144s32.5 -113.5 32.5 -175.5z" />
    <glyph glyph-name="E" unicode="E" horiz-adv-x="521" 
d="M116 695c1.33301 25.333 6.99805 49.668 16.998 73.001s23.333 44.666 40 63.999c-9.33301 0 -21.166 -2.16699 -35.499 -6.5s-28.166 -10 -41.499 -17s-25 -15.333 -35 -25s-15 -20.167 -15 -31.5c0 -16 7.66699 -28.5 23 -37.5s31 -15.5 47 -19.5zM387.998 799.002
c0 22 -10.334 33 -31.001 33c-28 0 -54.667 -9.33301 -80 -28s-44.666 -42 -57.999 -70h1c-3.33301 -7.33301 -6.33301 -14.833 -9 -22.5s-4 -15.167 -4 -22.5c16.667 2 35.5 5.5 56.5 10.5s40.667 11.833 59 20.5s33.833 19.5 46.5 32.5s19 28.5 19 46.5zM518.997 188.002
c0 -32 -6.50293 -61.999 -19.5029 -89.999s-29.833 -52.167 -50.5 -72.5s-44.167 -36.333 -70.5 -48s-52.833 -17.5 -79.5 -17.5c-43.333 0 -82.333 10.5 -117 31.5s-64.5 48.667 -89.5 83s-44.167 73.166 -57.5 116.499s-20 87.666 -20 132.999c0 53.333 10.333 102 31 146
s51.334 80 92.001 108c-2 3.33301 -3.33301 5.83301 -4 7.5s-1.66699 4.5 -3 8.5c-18 2.66699 -37.333 7.5 -58 14.5s-39.834 17 -57.501 30s-32.167 28.833 -43.5 47.5s-17 40.667 -17 66c0 26.667 7.83301 50.834 23.5 72.501s34.834 40.167 57.501 55.5
s46.5 27.166 71.5 35.499s47.167 12.5 66.5 12.5c12 0 22.667 -4.66699 32 -14s14 -20.666 14 -33.999v-5c21.333 16.667 43.833 29.667 67.5 39s46.834 14 69.501 14c36 0 65.333 -11 88 -33s34 -54 34 -96c0 -22.667 -3.83301 -43.167 -11.5 -61.5
s-18 -34.666 -31 -48.999s-28 -26.833 -45 -37.5s-34.833 -20 -53.5 -28c14.667 -5.33301 28 -13.5 40 -24.5s18 -25.833 18 -44.5c0 -15.333 -3.16699 -28.5 -9.5 -39.5s-14.5 -20.167 -24.5 -27.5s-21 -12.833 -33 -16.5s-23.333 -5.5 -34 -5.5
c-17.333 0 -34.333 3.5 -51 10.5s-32.334 16.167 -47.001 27.5c-28.667 -17.333 -51 -41.833 -67 -73.5s-24 -66.834 -24 -105.501c0 -32.667 4.5 -65 13.5 -97s21.833 -60.667 38.5 -86s36.834 -45.833 60.501 -61.5s50.5 -23.5 80.5 -23.5c14.667 0 29.667 3.5 45 10.5
s29.333 16.5 42 28.5s22.834 26 30.501 42s11.5 33 11.5 51c0 8 -2 15.667 -6 23s-9 11 -15 11c-7.33301 0 -12.166 -1 -14.499 -3s-3.83301 -4 -4.5 -6v1c-2.66699 -9.33301 -6.5 -17.5 -11.5 -24.5s-14.5 -10.5 -28.5 -10.5c-15.333 0 -27.333 5.83301 -36 17.5
s-13 24.834 -13 39.501c0 13.333 4 25 12 35s17.667 18.5 29 25.5s23.166 12.333 35.499 16s22.833 5.5 31.5 5.5c16 0 30.833 -3.66699 44.5 -11s25.5 -17 35.5 -29s17.833 -25.833 23.5 -41.5s8.5 -31.834 8.5 -48.501z" />
    <glyph glyph-name="F" unicode="F" horiz-adv-x="367" 
d="M248 514l-0.00195312 49.001c0 18 0.666992 36.667 2 56c-3.33301 -23.333 -8.66602 -46.333 -15.999 -69s-18 -42.667 -32 -60c4 -0.666992 8.16699 -1.83398 12.5 -3.50098l11.5 -4.5c2.66699 -1.33301 5.33398 -2 8.00098 -2c6 0 10.667 0.333008 14 1v33z
M254.998 672.001c3.33301 32.667 8.49805 63.501 15.498 92.501s16.833 52.167 29.5 69.5c-23.333 -0.666992 -49.666 -5.83398 -78.999 -15.501s-57 -23 -83 -40s-47.833 -37.667 -65.5 -62s-26.5 -51.5 -26.5 -81.5c0 -11.333 1.5 -22.5 4.5 -33.5
s7.16699 -20.833 12.5 -29.5s12 -15.667 20 -21s17 -8 27 -8c11.333 0 20.5 5 27.5 15s12.5 22.333 16.5 37s6.66699 30 8 46s2 30 2 42c0 13.333 4.33301 24.666 13 33.999s19.334 14 32.001 14c12 0 22.667 -4.66699 32 -14s14 -20.666 14 -33.999v-11zM587.996 850.002
c0 -13.333 -4.66309 -24.668 -13.9961 -34.001s-20 -14 -32 -14c-20 0 -40.333 1.66699 -61 5s-41.334 7.33301 -62.001 12l-13.5 2c-4.33301 0.666992 -8.5 1.66699 -12.5 3c0 -1.33301 0.166992 -2.83301 0.5 -4.5s0.5 -3.16699 0.5 -4.5
c0 -15.333 -4.66699 -27.166 -14 -35.499s-20 -12.5 -32 -12.5c-1.33301 0 -2.5 -3.33301 -3.5 -10s-1.83301 -15.5 -2.5 -26.5s-1.33398 -23.5 -2.00098 -37.5s-1 -28.333 -1 -43c6.66699 12.667 14.834 23.334 24.501 32.001s21.834 13 36.501 13
c11.333 0 21.666 -2.66699 30.999 -8s17.166 -12.333 23.499 -21s11.333 -18.5 15 -29.5s5.5 -21.833 5.5 -32.5c0 -14.667 -1.66699 -30.334 -5 -47.001h1c13.333 0 24.333 -4.83301 33 -14.5s13 -21.167 13 -34.5c0 -12 -3.83301 -22 -11.5 -30
s-16.834 -14.5 -27.501 -19.5s-21.334 -8.5 -32.001 -10.5s-19.334 -3 -26.001 -3h-8c-2.66699 0 -5.33398 0.333008 -8.00098 1c-9.33301 -8.66699 -19.5 -16.167 -30.5 -22.5s-21.833 -12.166 -32.5 -17.499c0.666992 -10.667 1 -24.334 1 -41.001v-40
c0 -40 -2.83301 -81.667 -8.5 -125s-16.5 -83 -32.5 -119s-38.5 -65.5 -67.5 -88.5s-66.833 -34.5 -113.5 -34.5c-12.667 0 -26 1.83301 -40 5.5s-27 9.66699 -39 18s-22 18.833 -30 31.5s-12 28 -12 46c0 12.667 2.33301 24.5 7 35.5s11 20.667 19 29s17 14.833 27 19.5
s20.667 7 32 7c12 0 22.667 -4.66699 32 -14s14 -20.666 14 -33.999c0 -15.333 -3.5 -26.166 -10.5 -32.499s-14.833 -11.166 -23.5 -14.499c3.33301 -0.666992 7.33301 -1 12 -1h12c28.667 0 51.667 8.83301 69 26.5s30.666 39.834 39.999 66.501s15.333 56 18 88
s4 62 4 90c0 7.33301 -0.166992 14.666 -0.5 21.999s-0.5 14.666 -0.5 21.999v16h-16c-5.33301 0 -12.5 1.16699 -21.5 3.5s-18.167 6 -27.5 11s-17.333 11 -24 18s-10 15.167 -10 24.5c0 2.66699 0.666992 6.66699 2 12c-12 -4.66699 -26.333 -7 -43 -7
c-24 0 -45.5 5.16699 -64.5 15.5s-35.167 24 -48.5 41s-23.666 36.833 -30.999 59.5s-11 46.667 -11 72c0 46.667 11.833 88.167 35.5 124.5s53.334 67.166 89.001 92.499s73.834 44.666 114.501 57.999s78 20 112 20c20 0 40.167 -1.83301 60.5 -5.5l62.5 -11.5
c18 -3.33301 36.333 -6.5 55 -9.5s38 -4.5 58 -4.5c12 0 22.667 -4.83301 32 -14.5s14 -21.167 14 -34.5z" />
    <glyph glyph-name="G" unicode="G" horiz-adv-x="618" 
d="M66 600c12 41.333 27.666 82.1641 46.999 122.497s43 76.5 71 108.5c-17.333 -0.666992 -34.166 -4.33398 -50.499 -11.001s-31 -16.167 -44 -28.5s-23.5 -27.166 -31.5 -44.499s-12 -36.666 -12 -57.999c0 -15.333 1.5 -30.666 4.5 -45.999
s8.16699 -29.666 15.5 -42.999zM401.999 777.998c0 11.333 -2.33398 23 -7.00098 35s-11.667 18 -21 18c-30.667 0 -58.334 -9 -83.001 -27s-46.5 -41 -65.5 -69s-35.333 -59.167 -49 -93.5s-24.5 -67.5 -32.5 -99.5h10c28.667 0 57.834 5.33301 87.501 16
s56.334 26.167 80.001 46.5s43 45 58 74s22.5 62.167 22.5 99.5zM392.998 -290.002v47.999c0 12.667 -0.166992 25 -0.5 37l-1 37.5c-0.333008 13 -0.833008 28.5 -1.5 46.5l-15 -13l-15 -13c-17.333 -14 -33.833 -28 -49.5 -42s-29.5 -29.833 -41.5 -47.5
s-21.5 -37.5 -28.5 -59.5s-10.5 -48 -10.5 -78c0 -17.333 2.16699 -34.666 6.5 -51.999s10.166 -33 17.499 -47s16.333 -25.333 27 -34s22 -13 34 -13c18.667 0 33.334 7.83301 44.001 23.5s18.5 35.167 23.5 58.5s8 48.333 9 75s1.5 51 1.5 73zM653.998 175.997
c0 -8 -2.33301 -15.6631 -7 -22.9961c-20.667 -38 -44.334 -72.833 -71.001 -104.5s-58 -62.5 -94 -92.5c1.33301 -36 2.5 -71.667 3.5 -107s1.5 -71 1.5 -107c0 -25.333 -0.5 -52 -1.5 -80s-3.16699 -55.833 -6.5 -83.5s-8.66602 -53.834 -15.999 -78.501
s-17.333 -46.5 -30 -65.5s-28.667 -34.167 -48 -45.5s-42.666 -17 -69.999 -17c-26 0 -50 7.33301 -72 22s-40.833 34 -56.5 58s-27.834 51.167 -36.501 81.5s-13 61.166 -13 92.499c0 56 8.33301 103.333 25 142s38 72.667 64 102c24.667 27.333 55.334 54 92.001 80
c1.33301 1.33301 3 2.5 5 3.5s3.66699 2.16699 5 3.5c-4 -0.666992 -7.83301 -1.16699 -11.5 -1.5s-7.16699 -0.5 -10.5 -0.5c-42.667 0 -81.167 11 -115.5 33s-63.5 50.667 -87.5 86s-42.333 75.166 -55 119.499s-19 88.833 -19 133.5c0 27.333 0.833008 54.666 2.5 81.999
s4.5 53.666 8.5 78.999c-28 23.333 -49.167 52.833 -63.5 88.5s-21.5 73.167 -21.5 112.5c0 36 6.83301 68.667 20.5 98s31.667 54.333 54 75s47.5 36.5 75.5 47.5s56 16.5 84 16.5c12 0 22.667 -4.16699 32 -12.5s14 -20.166 14 -35.499v-1c20 15.333 41.5 27.333 64.5 36
s47.833 13 74.5 13c18.667 0 35.334 -4.33301 50.001 -13s27 -20 37 -34s17.667 -29.833 23 -47.5s8 -35.5 8 -53.5c0 -51.333 -10 -97.333 -30 -138s-46 -75.5 -78 -104.5s-68.167 -51.167 -108.5 -66.5s-80.833 -23 -121.5 -23c-5.33301 0 -10 0.166992 -14 0.5
s-8.66699 0.833008 -14 1.5c-2.66699 -19.333 -4.5 -39.5 -5.5 -60.5s-1.5 -41.167 -1.5 -60.5c0 -32 4.33301 -64.167 13 -96.5s21 -61.833 37 -88.5s35.5 -48.334 58.5 -65.001s49.167 -25 78.5 -25c12.667 0 24.167 3.66699 34.5 11s19 17 26 29s12.333 25.333 16 40
s5.5 29.334 5.5 44.001c0 7.33301 -0.166992 14.5 -0.5 21.5s-0.5 14.167 -0.5 21.5v44c0 13.333 4.33301 24.833 13 34.5s19.334 14.5 32.001 14.5c12 0 22.667 -4.83301 32 -14.5s14 -21.167 14 -34.5v-51c0 -14 0.333008 -27.167 1 -39.5s1.16699 -25.333 1.5 -39
s1.16602 -30.5 2.49902 -50.5c22.667 23.333 43.667 49.666 63 78.999c2 3.33301 3.66699 6.33301 5 9s3 5.66699 5 9v-1c2.66699 4.66699 5.16699 9.33398 7.5 14.001s5.16602 9 8.49902 13l-1 -1c9.33301 13.333 21.666 20 36.999 20c12 0 22.667 -5.16699 32 -15.5
s14 -21.5 14 -33.5z" />
    <glyph glyph-name="H" unicode="H" horiz-adv-x="811" 
d="M680 759c0 4.66699 -0.333008 10.835 -1 18.502s-1.66699 15.167 -3 22.5s-3 13.5 -5 18.5s-4.66699 7.5 -8 7.5c-22.667 0 -42.5 -8.66699 -59.5 -26s-31.833 -39 -44.5 -65s-23.167 -54.333 -31.5 -85s-14.833 -59.334 -19.5 -86.001
c20 9.33301 40.167 20.166 60.5 32.499s38.833 26.5 55.5 42.5s30.167 34 40.5 54s15.5 42 15.5 66zM55 143.001c0 -5.33301 0.332031 -11.8369 0.999023 -19.5039s1.66699 -15.167 3 -22.5s3.16602 -13.666 5.49902 -18.999s5.5 -8 9.5 -8
c23.333 0 43.833 8.83301 61.5 26.5s32.834 39.834 45.501 66.501s23.334 55.834 32.001 87.501s15.667 61.167 21 88.5c-20.667 -10 -41.667 -21.333 -63 -34s-40.5 -27.167 -57.5 -43.5s-31 -34.666 -42 -54.999s-16.5 -42.833 -16.5 -67.5zM372.999 302.997
c-13.333 0 -23.332 2.99902 -29.999 8.99902s-11 13.667 -13 23c-7.33301 -39.333 -17.333 -80 -30 -122s-29.167 -80.333 -49.5 -115s-45 -63.5 -74 -86.5s-63.167 -34.833 -102.5 -35.5c-20 0 -37.167 5.66699 -51.5 17s-25.833 25.333 -34.5 42s-15 34.834 -19 54.501
s-6 37.5 -6 53.5c0 43.333 9 81.666 27 114.999s41 62.333 69 87s58.667 45.834 92 63.501s65.666 32.5 96.999 44.5c0 30 0.166992 59.667 0.5 89s0.5 59 0.5 89c0 28 1 55.167 3 81.5s6.33301 52.5 13 78.5c-2 1.33301 -4 2.5 -6 3.5s-4 2.16699 -6 3.5h1l-44 22
c-15.333 7.33301 -27 11 -35 11c-13.333 0 -27.666 -2.16699 -42.999 -6.5s-29.333 -10.666 -42 -18.999s-23.167 -19 -31.5 -32s-12.5 -27.833 -12.5 -44.5c0 -15.333 4 -30 12 -44s18.333 -21 31 -21c9.33301 0 18 3.16699 26 9.5s12 15.166 12 26.499
c0 14 4.33301 25.333 13 34s19.334 13 32.001 13c12 0 22.667 -4.33301 32 -13s14 -20 14 -34c0 -20 -3.66699 -38 -11 -54s-17.166 -29.833 -29.499 -41.5s-26.166 -20.5 -41.499 -26.5s-31 -9 -47 -9c-20 0 -38.167 4.5 -54.5 13.5s-30.333 20.833 -42 35.5
s-20.834 31.667 -27.501 51s-10 39.333 -10 60c0 32.667 7 61.334 21 86.001s31.667 45.167 53 61.5s45 28.666 71 36.999s51 12.5 75 12.5c17.333 0 36.5 -4.66699 57.5 -14l60.5 -28c2.66699 -1.33301 4.33398 -2 5.00098 -2h1c0.666992 0 1.33398 -0.166992 2.00098 -0.5
s2 -0.833008 4 -1.5c11.333 13.333 24.5 24.166 39.5 32.499s31.5 12.5 49.5 12.5c10 0 21.167 -1.5 33.5 -4.5s23.666 -7.66699 33.999 -14s19 -15 26 -26s10.5 -24.5 10.5 -40.5c0 -15.333 -3.5 -28.333 -10.5 -39s-15.667 -19.5 -26 -26.5s-21.5 -12.167 -33.5 -15.5
s-23.333 -5 -34 -5c-15.333 0 -29.333 1.33301 -42 4c-5.33301 -21.333 -8.66602 -42.5 -9.99902 -63.5s-2 -42.167 -2 -63.5v-49c7.33301 8.66699 18 13 32 13c9.33301 0 17.666 -2.5 24.999 -7.5s12.666 -11.833 15.999 -20.5c6.66699 38 16 77.833 28 119.5
s27.833 80 47.5 115s43.834 64 72.501 87s62.667 34.5 102 34.5c19.333 0 35.833 -5.5 49.5 -16.5s24.834 -24.667 33.501 -41s15 -34.166 19 -53.499s6 -37 6 -53c0 -42.667 -8.83301 -80.334 -26.5 -113.001s-40 -61.167 -67 -85.5s-56.833 -45 -89.5 -62
s-64 -31.5 -94 -43.5c-0.666992 -5.33301 -1 -10.666 -1 -15.999v-16c0 -14.667 0.833008 -34 2.5 -58s4.5 -49.5 8.5 -76.5s9.16699 -54.333 15.5 -82s13.833 -52.5 22.5 -74.5s19 -40 31 -54s25.333 -21 40 -21s28.167 3.66699 40.5 11s23 17 32 29
s15.833 25.833 20.5 41.5s7 32.167 7 49.5c0 8 -1.83301 15.667 -5.5 23s-8.5 11 -14.5 11c-0.666992 0 -1.66699 -2.66699 -3 -8c-3.33301 -11.333 -7.33301 -21.166 -12 -29.499s-15.667 -12.5 -33 -12.5c-12.667 0 -23.334 4.16699 -32.001 12.5s-13 20.166 -13 35.499
c0 14.667 2.66699 28 8 40s12.166 22.333 20.499 31s18.166 15.334 29.499 20.001s23 7 35 7c16 0 30.833 -3.66699 44.5 -11s25.5 -17 35.5 -29s17.667 -25.833 23 -41.5s8 -31.834 8 -48.501c0 -30 -4.66699 -58.667 -14 -86s-22.333 -51.5 -39 -72.5
s-36.667 -37.667 -60 -50s-49.333 -18.5 -78 -18.5c-32.667 0 -60.834 11.667 -84.501 35s-43.5 52.833 -59.5 88.5s-28.833 74.667 -38.5 117s-16.834 82.5 -21.501 120.5c-9.33301 -12.667 -21.333 -19 -36 -19z" />
    <glyph glyph-name="I" unicode="I" horiz-adv-x="380" 
d="M498 839c0 -15.333 -3.49805 -28.5059 -10.498 -39.5059s-15.667 -19.833 -26 -26.5s-21.5 -11.5 -33.5 -14.5s-23.333 -4.5 -34 -4.5c-15.333 0 -29.333 1.33301 -42 4c-5.33301 -21.333 -8.66602 -42.666 -9.99902 -63.999s-2 -42.666 -2 -63.999
c0 -28.667 0.166992 -57.334 0.5 -86.001s0.5 -57.334 0.5 -86.001c0.666992 -25.333 1 -54.333 1 -87v-86c0 -39.333 -3.33301 -78.5 -10 -117.5s-18.167 -73.833 -34.5 -104.5s-38.5 -55.5 -66.5 -74.5s-63.333 -28.5 -106 -28.5c-12 0 -25.167 2 -39.5 6
s-27.5 10 -39.5 18s-22 18.5 -30 31.5s-12 28.5 -12 46.5c0 12.667 2.33301 24.5 7 35.5s10.834 20.667 18.501 29s16.667 14.833 27 19.5s21.166 7 32.499 7c13.333 0 24.333 -4.66699 33 -14s13 -20.666 13 -33.999c0 -15.333 -3.5 -26.166 -10.5 -32.499
s-14.5 -11.166 -22.5 -14.499c3.33301 -1.33301 7 -2 11 -2h12c26 0 47.167 7 63.5 21s29.166 32.167 38.499 54.5s15.666 47 18.999 74s5 53.5 5 79.5v87c0 28.667 -0.333008 57.334 -1 86.001c0 28.667 -0.166992 57.334 -0.5 86.001s-0.5 57.334 -0.5 86.001
c0 27.333 1 54.5 3 81.5s6.33301 53.5 13 79.5c-2.66699 1.33301 -4.83398 2.5 -6.50098 3.5s-3.83398 2.16699 -6.50098 3.5c-13.333 7.33301 -27.5 14.5 -42.5 21.5s-26.5 10.5 -34.5 10.5c-13.333 0 -27.666 -2.16699 -42.999 -6.5s-29.333 -10.666 -42 -18.999
s-23.167 -19 -31.5 -32s-12.5 -27.833 -12.5 -44.5c0 -15.333 4 -30 12 -44s18.333 -21 31 -21c9.33301 0 18 3.16699 26 9.5s12 15.166 12 26.499c0 13.333 4.33301 24.666 13 33.999s19.334 14 32.001 14c12 0 22.667 -4.66699 32 -14s14 -20.666 14 -33.999
c0 -20 -3.66699 -38 -11 -54s-17.166 -29.667 -29.499 -41s-26.166 -20.166 -41.499 -26.499s-31 -9.5 -47 -9.5c-20 0 -38.167 4.5 -54.5 13.5s-30.333 21 -42 36s-20.834 32 -27.501 51s-10 38.833 -10 59.5c0 32.667 7 61.5 21 86.5s31.667 45.667 53 62
s45 28.666 71 36.999s51 12.5 75 12.5c18 0 37.333 -4.5 58 -13.5s39.667 -18.167 57 -27.5l14 -7c11.333 13.333 24.666 24.333 39.999 33s32 13 50 13c10 0 21.167 -1.5 33.5 -4.5s23.666 -7.83301 33.999 -14.5s19 -15.5 26 -26.5s10.5 -24.167 10.5 -39.5z" />
    <glyph glyph-name="J" unicode="J" horiz-adv-x="474" 
d="M263 -116l-0.00390625 17.999c-17.333 -13.333 -34.5 -27.5 -51.5 -42.5s-32.167 -31.667 -45.5 -50s-24.166 -39.166 -32.499 -62.499s-12.5 -49.333 -12.5 -78c0 -15.333 0.333008 -30 1 -44s2.66699 -27 6 -39c2 -11.333 5.16699 -23.166 9.5 -35.499
s9.5 -23.833 15.5 -34.5s12.333 -19.334 19 -26.001s13.667 -10 21 -10c12.667 0 23.334 7.16699 32.001 21.5s15.834 31.833 21.501 52.5s9.83398 42.5 12.501 65.5s4 43.167 4 60.5v204zM520.996 175.999c0 -3.33301 -0.170898 -6.16895 -0.503906 -8.50195
s-1.83301 -5.16602 -4.5 -8.49902c-8.66699 -21.333 -19 -41 -31 -59s-25.333 -34.667 -40 -50s-29.834 -29.833 -45.501 -43.5l-47.5 -39.5c0 -3.33301 0.166992 -6.5 0.5 -9.5s0.5 -6.16699 0.5 -9.5c0.666992 -9.33301 1.16699 -20 1.5 -32s0.5 -22.667 0.5 -32v-204
c0 -30 -3.16699 -62.833 -9.5 -98.5s-16.166 -69 -29.499 -100s-30.166 -56.833 -50.499 -77.5s-44.5 -31 -72.5 -31c-27.333 0 -51.166 9.5 -71.499 28.5s-37.333 43.167 -51 72.5s-24 61.333 -31 96s-10.5 67.667 -10.5 99c0 47.333 6.5 88.666 19.5 123.999
s30 66.5 51 93.5s44.333 50.833 70 71.5s51.167 40 76.5 58l12 9c-3.33301 101.333 -5.66602 201.833 -6.99902 301.5s-2 200.167 -2 301.5c0 26 1 53 3 81s6.33301 55 13 81c-2.66699 1.33301 -4.83398 2.5 -6.50098 3.5s-3.83398 2.16699 -6.50098 3.5
c-13.333 7.33301 -27.666 14.666 -42.999 21.999s-26.666 11 -33.999 11c-13.333 0 -27.666 -2.16699 -42.999 -6.5s-29.333 -10.833 -42 -19.5s-23.167 -19.5 -31.5 -32.5s-12.5 -27.833 -12.5 -44.5c0 -15.333 3.83301 -30 11.5 -44s18.167 -21 31.5 -21
c9.33301 0 18 3.16699 26 9.5s12 15.166 12 26.499c0 14 4.33301 25.333 13 34s19.334 13 32.001 13c12 0 22.667 -4.33301 32 -13s14 -20 14 -34c0 -20 -3.66699 -38.167 -11 -54.5s-17.166 -30.166 -29.499 -41.499s-26.166 -20.166 -41.499 -26.499s-31 -9.5 -47 -9.5
c-20 0 -38.167 4.5 -54.5 13.5s-30.5 21 -42.5 36s-21.167 32.167 -27.5 51.5s-9.5 39.333 -9.5 60c0 32 6.83301 60.5 20.5 85.5s31.167 45.833 52.5 62.5s45 29.334 71 38.001s51.333 13 76 13c18 0 37.167 -4.5 57.5 -13.5s39.166 -18.167 56.499 -27.5
c3.33301 -2 5.33301 -3.33301 6 -4s3.66699 -2 9 -4c11.333 14.667 24.5 26.167 39.5 34.5s31.833 12.5 50.5 12.5c10.667 0 22 -1.5 34 -4.5s23.167 -7.66699 33.5 -14s19 -15 26 -26s10.5 -24.5 10.5 -40.5c0 -15.333 -3.5 -28.5 -10.5 -39.5s-15.667 -20 -26 -27
s-21.5 -12.167 -33.5 -15.5s-23.333 -5 -34 -5c-13.333 0 -27.333 1.66699 -42 5c-5.33301 -21.333 -8.66602 -42.833 -9.99902 -64.5s-2 -43.167 -2 -64.5c0 -50 0.166992 -96.833 0.5 -140.5l1 -130c0.333008 -43 1.16602 -86.5 2.49902 -130.5s3 -91 5 -141
c13.333 12 26 24.667 38 38s22.333 27.666 31 42.999c1.33301 2.66699 2.5 4.83398 3.5 6.50098s2.16699 3.83398 3.5 6.50098c1.33301 3.33301 3.16602 7 5.49902 11s4.16602 7.33301 5.49902 10c9.33301 16 22 24 38 24c11.333 0 22 -5.16699 32 -15.5s15 -21.5 15 -33.5z
" />
    <glyph glyph-name="K" unicode="K" horiz-adv-x="741" 
d="M817 187c0 -30 -5 -58.833 -15 -86.5s-23.667 -51.834 -41 -72.501s-37.833 -37.167 -61.5 -49.5s-49.167 -18.5 -76.5 -18.5c-24.667 0 -47 6 -67 18s-37 27.833 -51 47.5s-24.667 41.667 -32 66s-11 49.166 -11 74.499v98c0 16.667 0.166992 33 0.5 49
s0.5 32.333 0.5 49c0 6.66699 -0.166992 12.834 -0.5 18.501s-1.16602 11.167 -2.49902 16.5c-11.333 -6.66699 -22.666 -11.334 -33.999 -14.001s-23.666 -4 -36.999 -4c-15.333 0 -31.333 4.66699 -48 14v-108c0 -39.333 -3.16699 -78.333 -9.5 -117
s-17.666 -73.334 -33.999 -104.001s-38.5 -55.667 -66.5 -75s-63.333 -29 -106 -29c-12 0 -25.167 2 -39.5 6s-27.5 10.167 -39.5 18.5s-22 18.833 -30 31.5s-12 27.667 -12 45c0 12.667 2.16699 24.834 6.5 36.501s10.333 22 18 31s16.667 16.167 27 21.5s21.5 8 33.5 8
c13.333 0 24.333 -4.83301 33 -14.5s13 -21.167 13 -34.5c0 -18 -3.83301 -29.667 -11.5 -35s-16.167 -9.33301 -25.5 -12c-0.666992 0 -1 -0.333008 -1 -1h-1h-1c0 -2 4.16699 -3.5 12.5 -4.5s14.166 -1.5 17.499 -1.5c26 0 47 7 63 21s28.667 32.167 38 54.5
s15.666 47.166 18.999 74.499s5 54 5 80v172c0 28.667 -0.166992 57.334 -0.5 86.001s-0.5 57.667 -0.5 87c0 26 1.16699 53 3.5 81s7.16602 54.667 14.499 80l-24 12.5c-8.66699 4.33301 -17.334 8.33301 -26.001 12s-16.667 6.66699 -24 9s-13.333 3.5 -18 3.5
c-12.667 0 -26.5 -2 -41.5 -6s-29 -10 -42 -18s-23.833 -18.333 -32.5 -31s-13 -27.667 -13 -45c0 -15.333 3.83301 -30 11.5 -44s18.167 -21 31.5 -21c9.33301 0 17.833 3 25.5 9s11.5 14.667 11.5 26c0 15.333 4.33301 27.166 13 35.499s19.667 12.5 33 12.5
c30 0 45 -16 45 -48c0 -19.333 -3.5 -37.166 -10.5 -53.499s-16.5 -30.166 -28.5 -41.499s-25.667 -20.166 -41 -26.499s-31.333 -9.5 -48 -9.5c-20 0 -38.167 4.5 -54.5 13.5s-30.5 21 -42.5 36s-21.333 32.167 -28 51.5s-10 39.333 -10 60c0 32.667 7 61.334 21 86.001
s31.667 45.167 53 61.5s45.166 28.666 71.499 36.999s51.5 12.5 75.5 12.5c19.333 0 38.666 -4.66699 57.999 -14l58 -28c0.666992 -0.666992 2.66699 -1.66699 6 -3s6 -2.66602 8 -3.99902c11.333 14.667 24.333 26.5 39 35.5s31.334 13.5 50.001 13.5
c10.667 0 22 -1.5 34 -4.5s23.167 -8 33.5 -15s18.833 -16 25.5 -27s10 -24.167 10 -39.5s-3.33301 -28.333 -10 -39s-15.167 -19.5 -25.5 -26.5s-21.5 -12.167 -33.5 -15.5s-23.333 -5 -34 -5c-7.33301 0 -14.833 0.166992 -22.5 0.5s-14.834 1.16602 -21.501 2.49902
c-4 -20 -6.66699 -41 -8 -63s-2 -43 -2 -63v-50c0 -16 0.333008 -32 1 -48c8 3.33301 16.167 6.16602 24.5 8.49902s16.166 3.5 23.499 3.5c10 0 20.5 -0.833008 31.5 -2.5s21.167 -4.16699 30.5 -7.5c7.33301 19.333 12 40.5 14 63.5s3 45.167 3 66.5
c0 32.667 4.5 64.5 13.5 95.5s22.167 58.833 39.5 83.5s38.333 44.5 63 59.5s53 22.5 85 22.5c20.667 0 38.667 -4.16699 54 -12.5s28 -19.666 38 -33.999s17.5 -30.833 22.5 -49.5s7.5 -38 7.5 -58c0 -13.333 -4.33301 -24.833 -13 -34.5s-19.667 -14.5 -33 -14.5
s-24.166 4.83301 -32.499 14.5s-12.5 21.167 -12.5 34.5c0 14 -2.33301 27.333 -7 40s-12.667 19 -24 19c-18 0 -33.833 -5 -47.5 -15s-25 -23 -34 -39s-15.833 -33.833 -20.5 -53.5s-7 -39.167 -7 -58.5c0 -30 -2.83301 -61.833 -8.5 -95.5s-14.5 -64.5 -26.5 -92.5
c11.333 -17.333 18.833 -34.5 22.5 -51.5s5.5 -35.167 5.5 -54.5v-204c0 -12.667 1.5 -25.5 4.5 -38.5s7.5 -24.833 13.5 -35.5s13.333 -19.5 22 -26.5s18.667 -10.5 30 -10.5c14.667 0 28.334 3.66699 41.001 11s23.667 17 33 29s16.5 26 21.5 42s7.5 32.667 7.5 50
c0 8 -1.83301 15.5 -5.5 22.5s-8.5 10.5 -14.5 10.5l-2 -8l1 2c-2 -11.333 -5.5 -21.5 -10.5 -30.5s-16.833 -13.5 -35.5 -13.5c-13.333 0 -24.333 4.33301 -33 13s-13 20 -13 34c0 29.333 9.33301 53 28 71s40.334 27 65.001 27c16 0 30.833 -3.5 44.5 -10.5
s25.5 -16.5 35.5 -28.5s17.667 -25.667 23 -41s8 -31.333 8 -48z" />
    <glyph glyph-name="L" unicode="L" horiz-adv-x="542" 
d="M438 779c0 13.333 -2.66699 24.9971 -8 34.9971s-13.333 15 -24 15c-36 0 -64.167 -12 -84.5 -36s-30.5 -57 -30.5 -99v-35c0 -9.33301 0.166992 -18.5 0.5 -27.5l1 -28c0.333008 -9.66699 0.833008 -21.167 1.5 -34.5c19.333 8.66699 37.833 19.834 55.5 33.501
s33 29.334 46 47.001s23.333 37.334 31 59.001s11.5 45.167 11.5 70.5zM200 693.997c0 54.667 11.668 100.666 35.001 137.999c-6.66699 -1.33301 -11.334 -2 -14.001 -2c-18 0 -35.667 -3.16699 -53 -9.5s-32.833 -15.5 -46.5 -27.5s-24.834 -26.667 -33.501 -44
s-13 -37 -13 -59c0 -19.333 2.5 -37.833 7.5 -55.5s12.333 -33.167 22 -46.5s21.334 -24 35.001 -32s29.167 -12 46.5 -12c4 0 6.5 -0.166992 7.5 -0.5s1.66699 -0.666016 2 -0.999023s0.833008 -0.5 1.5 -0.5c1.33301 0 4 0.666992 8 2c-1.33301 25.333 -2.5 50 -3.5 74
s-1.5 49.333 -1.5 76zM588.001 140.996c0 -10 -2.99414 -19.332 -8.99414 -27.999c-12 -18 -25.5 -36.167 -40.5 -54.5s-31.333 -34.666 -49 -48.999s-36.5 -26 -56.5 -35s-41.333 -13.5 -64 -13.5c-30 0 -58.333 2.66699 -85 8s-53.667 14.666 -81 27.999
c-17.333 -13.333 -36.333 -22.666 -57 -27.999s-41.334 -8 -62.001 -8c-10 0 -22.5 1.83301 -37.5 5.5s-29.167 9.33398 -42.5 17.001s-24.833 17.5 -34.5 29.5s-14.5 26 -14.5 42c0 18.667 4.33301 34 13 46s19.334 21.5 32.001 28.5s26.167 12 40.5 15
s27.166 4.5 38.499 4.5c22.667 0 41.667 -2.83301 57 -8.5s31.666 -13.5 48.999 -23.5c7.33301 13.333 13.166 28.333 17.499 45s7.5 33.667 9.5 51s3.33301 34.666 4 51.999s1 33.666 1 48.999c0 22.667 -0.833008 44.667 -2.5 66s-3.16699 43 -4.5 65
c0 2.66699 -0.166992 3.83398 -0.5 3.50098s-0.5 -0.833008 -0.5 -1.5v-2v4h-23c-30.667 0 -58.334 6.33301 -83.001 19s-45.834 30 -63.501 52s-31.334 47.5 -41.001 76.5s-14.5 60.167 -14.5 93.5c0 36 6.83301 68.5 20.5 97.5s31.834 53.667 54.501 74
s48 36.166 76 47.499s56.667 17 86 17c12 0 22.667 -4.66699 32 -14s14 -20.666 14 -33.999v-6c17.333 16.667 37.666 29.667 60.999 39s49.333 14 78 14c18.667 0 35.667 -4 51 -12s28.333 -18.667 39 -32s18.834 -28.833 24.501 -46.5s8.5 -36.167 8.5 -55.5
c0 -40 -6 -76.667 -18 -110s-28.5 -63 -49.5 -89s-45.333 -48.333 -73 -67s-57.167 -33.334 -88.5 -44.001c0 -0.666992 0.166992 -1.66699 0.5 -3s0.5 -2.33301 0.5 -3c2 -24.667 3.66699 -49.334 5 -74.001s2 -49.667 2 -75c0 -40 -2.5 -81.167 -7.5 -123.5
s-16.5 -81.5 -34.5 -117.5c15.333 -5.33301 32.166 -9.5 50.499 -12.5s35.833 -4.5 52.5 -4.5c12.667 0 24.834 3 36.501 9s22.5 13.333 32.5 22s19.167 18.167 27.5 28.5l22.5 28.5c10 12.667 18.667 23.167 26 31.5s16.666 12.5 27.999 12.5c12 0 22.667 -4.5 32 -13.5
s14 -20.167 14 -33.5z" />
    <glyph glyph-name="M" unicode="M" horiz-adv-x="931" 
d="M924 187c0 -30.667 -4.99902 -59.6748 -14.999 -87.0078s-23.833 -51.333 -41.5 -72s-38.334 -37 -62.001 -49s-49.5 -18 -77.5 -18c-28.667 0 -53 5.5 -73 16.5s-36.667 25.833 -50 44.5s-24 40.167 -32 64.5s-13.833 49.5 -17.5 75.5s-6 52 -7 78s-1.5 50.333 -1.5 73
c0 32 0.833008 64 2.5 96s3.83398 64 6.50098 96l6 81c2 26.667 3.33301 54 4 82c-6 -76 -11.167 -151.5 -15.5 -226.5l-12.5 -226.5c-0.666992 -11.333 -1.33398 -23.666 -2.00098 -36.999s-1.33398 -25.666 -2.00098 -36.999c0 -3.33301 -0.166992 -7 -0.5 -11
s-0.5 -8 -0.5 -12c-0.666992 -16 -1.66699 -33.333 -3 -52s-4.66602 -36 -9.99902 -52s-13.5 -29.333 -24.5 -40s-26.5 -16 -46.5 -16c-16 0 -29.167 3.83301 -39.5 11.5s-18.333 17.334 -24 29.001s-9.66699 24.834 -12 39.501s-3.5 29 -3.5 43v50
c0 1.33301 -0.166992 2.5 -0.5 3.5s-0.5 2.5 -0.5 4.5c-3.33301 50.667 -6.33301 101.667 -9 153l-8 152c-1.33301 25.333 -2.5 50.5 -3.5 75.5s-2.16699 50.167 -3.5 75.5v-1c-1.33301 12.667 -2.16602 25.167 -2.49902 37.5s-1.16602 24.833 -2.49902 37.5
c-5.33301 -75.333 -11.166 -150.333 -17.499 -225s-14.166 -149.334 -23.499 -224.001c-4.66699 -35.333 -12.334 -68.666 -23.001 -99.999s-25.334 -58.833 -44.001 -82.5s-41.167 -42.334 -67.5 -56.001s-57.166 -20.5 -92.499 -20.5c-13.333 0 -26.833 1.83301 -40.5 5.5
s-26.167 9.5 -37.5 17.5s-20.666 18.333 -27.999 31s-11 28.334 -11 47.001c0 28 8.66699 50.167 26 66.5s37.666 24.5 60.999 24.5c13.333 0 24.333 -4.16699 33 -12.5s13 -20.166 13 -35.499c0 -18 -4 -29.833 -12 -35.5s-16.667 -9.83398 -26 -12.501
c2.66699 -0.666992 6 -1 10 -1h12c22 0 41 4.83301 57 14.5s29.333 22.5 40 38.5s19.167 34.667 25.5 56s11.166 44 14.499 68c11.333 90 20.5 178.833 27.5 266.5s13.5 176.5 19.5 266.5c0.666992 14.667 2.16699 31.167 4.5 49.5s6.5 35.666 12.5 51.999s15 30 27 41
s28 16.5 48 16.5c16.667 0 29.834 -3.5 39.501 -10.5s17 -16 22 -27s8.16699 -23.333 9.5 -37s2.33301 -26.834 3 -39.501c0 -3.33301 0.166992 -6 0.5 -8s0.5 -4.33301 0.5 -7c2 -35.333 3.83301 -71.5 5.5 -108.5s3.5 -73.167 5.5 -108.5
c2.66699 -51.333 5.16699 -102 7.5 -152s5.16602 -100.333 8.49902 -151c4.66699 88 9.83398 175.333 15.501 262s12.5 173.667 20.5 261c1.33301 12.667 3.16602 26.334 5.49902 41.001s6.33301 28.334 12 41.001s13.667 23.167 24 31.5s24.5 12.5 42.5 12.5
c19.333 0 35 -4.33301 47 -13s21.333 -19.667 28 -33s11.167 -28.166 13.5 -44.499s3.5 -32.166 3.5 -47.499c0 -8 -0.333008 -16.333 -1 -25s-1.33398 -16.667 -2.00098 -24s-1.16699 -14.666 -1.5 -21.999s-0.5 -14.666 -0.5 -21.999c0 -33.333 -1 -66.5 -3 -99.5
s-4.33301 -65.5 -7 -97.5s-5 -64 -7 -96s-3 -64 -3 -96c0 -21.333 0.5 -46.166 1.5 -74.499s4.33301 -55.5 10 -81.5s14.667 -48 27 -66s29.833 -27 52.5 -27c14.667 0 28.5 3.66699 41.5 11s24.167 17 33.5 29s16.666 25.833 21.999 41.5s8 32.167 8 49.5
c0 8.66699 -2 16.667 -6 24s-9 11 -15 11c-0.666992 -0.666992 -1 -1.33398 -1 -2.00098s-0.166992 -1.5 -0.5 -2.5s-0.5 -1.83301 -0.5 -2.5c-3.33301 -11.333 -7.33301 -21.333 -12 -30s-15.667 -13 -33 -13c-12.667 0 -23.334 4.33301 -32.001 13s-13 20 -13 34
c0 29.333 9.16699 53 27.5 71s39.833 27 64.5 27c16.667 0 31.834 -3.5 45.501 -10.5s25.5 -16.5 35.5 -28.5s17.667 -25.833 23 -41.5s8 -32.167 8 -49.5z" />
    <glyph glyph-name="N" unicode="N" horiz-adv-x="627" 
d="M800 724c0 -20 -4.00293 -37.8359 -12.0029 -53.5029s-18.167 -28.834 -30.5 -39.501s-26.333 -18.667 -42 -24s-31.167 -8 -46.5 -8c-10 0 -20.333 1.66699 -31 5s-20.334 8.16602 -29.001 14.499s-15.834 14.5 -21.501 24.5s-8.5 22 -8.5 36
c0 15.333 4.66699 27.166 14 35.499s19.333 12.5 30 12.5c15.333 0 25.333 -3.5 30 -10.5s8.66699 -14.5 12 -22.5h1c0.666992 0 1.16699 0.166992 1.5 0.5s0.833008 0.5 1.5 0.5c8 0 16.667 2.5 26 7.5s14 12.167 14 21.5c0 14 -2 27.333 -6 40
s-9.83301 23.834 -17.5 33.501s-16.5 17.334 -26.5 23.001s-21 8.5 -33 8.5c-14 0 -25.167 -4.33301 -33.5 -13s-14.666 -19.667 -18.999 -33s-7.16602 -28.166 -8.49902 -44.499s-2 -32.166 -2 -47.499v-139c0 -46 0.333008 -92 1 -138c0 -46 0.166992 -92 0.5 -138
s0.5 -92 0.5 -138c0 -16 -1 -34.333 -3 -55s-6.33301 -40.334 -13 -59.001s-16.5 -34.334 -29.5 -47.001s-30.5 -19 -52.5 -19c-18 0 -32.833 5.33301 -44.5 16s-21 24 -28 40s-12.333 33.333 -16 52s-6.5 35.667 -8.5 51c-0.666992 2.66699 -1.16699 5.83398 -1.5 9.50098
s-0.833008 6.5 -1.5 8.5l-35 264.5l-34 265.5c-0.666992 -74.667 -1.66699 -148.834 -3 -222.501s-4.66602 -147.5 -9.99902 -221.5c-2.66699 -35.333 -8.33398 -68.833 -17.001 -100.5s-21.5 -59.334 -38.5 -83.001s-38.167 -42.5 -63.5 -56.5s-55.666 -21 -90.999 -21
c-12 0 -25 2 -39 6s-27 10 -39 18s-22 18.5 -30 31.5s-12 28.5 -12 46.5c0 12.667 2.33301 24.5 7 35.5s10.834 20.667 18.501 29s16.667 14.833 27 19.5s21.166 7 32.499 7c12.667 0 23.334 -4.66699 32.001 -14s13 -20.666 13 -33.999
c0 -15.333 -3.5 -26.166 -10.5 -32.499s-14.5 -11.166 -22.5 -14.499c3.33301 -1.33301 7 -2 11 -2h12c20.667 0 38.334 4.83301 53.001 14.5s26.5 22.5 35.5 38.5s16 34.333 21 55s8.5 42.334 10.5 65.001c5.33301 89.333 8.66602 180.333 9.99902 273s2 183.667 2 273
c0 14 0.833008 29.667 2.5 47s5.16699 33.5 10.5 48.5s13.5 27.667 24.5 38s26.167 15.5 45.5 15.5c16.667 0 30.167 -4 40.5 -12s18.333 -18.167 24 -30.5s9.83398 -25.666 12.501 -39.999s4.66699 -27.833 6 -40.5l33 -258l33 -257c3.33301 -22.667 6.33301 -45.5 9 -68.5
s5.66699 -45.833 9 -68.5c0 -1.33301 0.166992 -3 0.5 -5s0.5 -4 0.5 -6c0.666992 -6.66699 1.66699 -14.667 3 -24s2.5 -18.5 3.5 -27.5l2.5 -23c0.666992 -6.33301 0.666992 -9.5 0 -9.5c2 0 3.5 2.66699 4.5 8s1.83301 11.5 2.5 18.5s1 14.167 1 21.5v19
c0 47.333 -0.166992 94.166 -0.5 140.499s-0.5 93.166 -0.5 140.499c0 20.667 -0.166992 43 -0.5 67s-0.5 48.333 -0.5 73v74v68c0 29.333 1.66699 58.333 5 87s10.333 54.334 21 77.001s26 41 46 55s47 21 81 21c24 0 46.667 -5.33301 68 -16s39.833 -25.167 55.5 -43.5
s28 -39.666 37 -63.999s13.5 -49.833 13.5 -76.5z" />
    <glyph glyph-name="O" unicode="O" horiz-adv-x="659" 
d="M121 656c0 32.667 3.99805 63.6631 11.998 92.9961c-16 -19.333 -29.667 -41.166 -41 -65.499s-20.333 -50 -27 -77s-11.5 -54.333 -14.5 -82s-4.5 -54.834 -4.5 -81.501c0 -47.333 5 -94.166 15 -140.499s25.5 -87.666 46.5 -123.999s47.667 -65.833 80 -88.5
s70.833 -34 115.5 -34c42.667 0 80 12.333 112 37s58.5 56.167 79.5 94.5s36.833 81 47.5 128s16 92.5 16 136.5c0 36 -4.5 76 -13.5 120s-22.5 85.333 -40.5 124s-40.5 71 -67.5 97s-58.5 39 -94.5 39c-21.333 0 -40 -4.66699 -56 -14s-29.5 -22 -40.5 -38
s-19.333 -34.667 -25 -56s-8.5 -44 -8.5 -68c0 -7.33301 1.33301 -14 4 -20s6.33398 -9 11.001 -9c2.66699 0 5.16699 2.16699 7.5 6.5s4 9.5 5 15.5s1.83301 12.333 2.5 19s1 12.667 1 18c0 15.333 4.33301 27.166 13 35.499s19.334 12.5 32.001 12.5
c12 0 22.667 -4.16699 32 -12.5s14 -20.166 14 -35.499c0 -16 -2.16699 -33.167 -6.5 -51.5s-10.833 -35.166 -19.5 -50.499s-19.834 -28.166 -33.501 -38.499s-29.5 -15.5 -47.5 -15.5c-15.333 0 -29.5 3.5 -42.5 10.5s-24.167 16.333 -33.5 28
s-16.666 25.167 -21.999 40.5s-8 31 -8 47zM649.998 451.996c0 -57.333 -7.33301 -115.333 -22 -174s-36.667 -111.667 -66 -159s-65.666 -85.833 -108.999 -115.5s-93.333 -44.5 -150 -44.5c-59.333 0 -110.833 14 -154.5 42s-79.834 64.667 -108.501 110s-50 97 -64 155
s-21 117 -21 177c0 44.667 3.33301 88.334 10 131.001s17.5 83.167 32.5 121.5s34.667 73.666 59 105.999s53.833 60.5 88.5 84.5c6.66699 6.66699 16 10 28 10c6.66699 0 12.834 -1.83301 18.501 -5.5s10.5 -8.16699 14.5 -13.5c18 16.667 38.333 29.5 61 38.5
s47.667 13.5 75 13.5c33.333 0 64.166 -7.16699 92.499 -21.5s53.833 -33.833 76.5 -58.5s42.667 -53.167 60 -85.5s32 -66.333 44 -102s20.833 -71.5 26.5 -107.5s8.5 -70 8.5 -102z" />
    <glyph glyph-name="P" unicode="P" horiz-adv-x="391" 
d="M380 814c0 -14 -4.66797 -25.334 -14.001 -34.001s-20 -13 -32 -13c-2.66699 0 -4.66699 -8.66699 -6 -26s-2.5 -38.166 -3.5 -62.499s-1.66699 -49.666 -2 -75.999s-0.5 -48.833 -0.5 -67.5v-38c0 -14 0.166992 -28 0.5 -42s0.5 -28 0.5 -42
c0.666992 -13.333 1 -28.333 1 -45v-44c0 -28.667 -1.16699 -57.334 -3.5 -86.001s-6.5 -56.5 -12.5 -83.5s-14.333 -52.333 -25 -76s-24.5 -44.167 -41.5 -61.5s-37.333 -31 -61 -41s-51.5 -15 -83.5 -15c-12.667 0 -26 1.83301 -40 5.5s-27 9.66699 -39 18
s-21.833 18.833 -29.5 31.5s-11.5 28 -11.5 46c0 25.333 8.16699 46.833 24.5 64.5s36.166 26.5 59.499 26.5c13.333 0 24.333 -4.16699 33 -12.5s13 -20.166 13 -35.499s-3.66699 -26.166 -11 -32.499s-15.333 -11.166 -24 -14.499c3.33301 -1.33301 7.33301 -2 12 -2h13
c30.667 0 55 8.5 73 25.5s31.667 38.667 41 65s15.333 55.166 18 86.499s4 61.666 4 90.999c0 18 -0.166992 35.667 -0.5 53s-0.833008 35 -1.5 53c-0.666992 15.333 -1 33 -1 53v56c0 12.667 0.333008 31.334 1 56.001s2.5 51.167 5.5 79.5s7.66699 56.333 14 84
s15.5 50.5 27.5 68.5c-26.667 -0.666992 -55.667 -6.33398 -87 -17.001c-16 -5.33301 -32.5 -12.833 -49.5 -22.5s-32.667 -21.334 -47 -35.001s-26 -29.334 -35 -47.001s-13.5 -36.834 -13.5 -57.501c0 -18 3.5 -33.667 10.5 -47s18.167 -20 33.5 -20
c7.33301 0 14.333 3.66699 21 11s12.334 16.166 17.001 26.499s8.33398 21.333 11.001 33s4 21.834 4 30.501c0 13.333 4.33301 24.666 13 33.999s19.334 14 32.001 14c12 0 22.667 -4.66699 32 -14s14 -20.666 14 -33.999c0 -20 -3.5 -41.667 -10.5 -65
s-16.833 -44.833 -29.5 -64.5s-27.834 -36 -45.501 -49s-37.167 -19.5 -58.5 -19.5s-40.333 4.33301 -57 13s-30.834 20.5 -42.501 35.5s-20.5 32.333 -26.5 52s-9 40.834 -9 63.501c0 46 11 86.167 33 120.5s49.667 63 83 86s69.5 40.167 108.5 51.5s75.167 17 108.5 17
c36 0 73.333 -4 112 -12s74 -22 106 -42s58.5 -47 79.5 -81s31.5 -77 31.5 -129c0 -29.333 -3.83301 -58.5 -11.5 -87.5s-19.167 -55 -34.5 -78s-34.333 -41.5 -57 -55.5s-49 -21 -79 -21c-12 0 -24.167 2.33301 -36.5 7s-23.5 11.334 -33.5 20.001
s-18.333 19.334 -25 32.001s-10 26.667 -10 42c0 13.333 4.33301 24.666 13 33.999s19.334 14 32.001 14c18 0 29 -3.5 33 -10.5s7 -15.5 9 -25.5v-4c0 -0.666992 2 -4.33398 6 -11.001c1.33301 -1.33301 5.33301 -2 12 -2c15.333 0 28.666 4.5 39.999 13.5
s20.833 20.5 28.5 34.5s13.334 29.667 17.001 47s5.5 34.333 5.5 51c0 24 -4.16699 44.833 -12.5 62.5s-19.166 32.834 -32.499 45.501s-28.833 23 -46.5 31s-35.834 14.333 -54.501 19v-3z" />
    <glyph glyph-name="Q" unicode="Q" horiz-adv-x="659" 
d="M121 652c0 32 3.99805 62.667 11.998 92c-16 -19.333 -29.667 -41.166 -41 -65.499s-20.333 -49.666 -27 -75.999s-11.5 -53.333 -14.5 -81s-4.5 -54.834 -4.5 -81.501c0 -46.667 5 -92.834 15 -138.501s25.5 -86.667 46.5 -123s47.667 -65.833 80 -88.5
s70.833 -34 115.5 -34c42.667 0 80 12.167 112 36.5s58.5 55.5 79.5 93.5s36.833 80.333 47.5 127s16 92 16 136c0 36 -4.5 75.833 -13.5 119.5s-22.5 84.667 -40.5 123s-40.5 70.333 -67.5 96s-58.5 38.5 -94.5 38.5c-21.333 0 -40 -4.66699 -56 -14s-29.5 -22 -40.5 -38
s-19.333 -34.5 -25 -55.5s-8.5 -43.167 -8.5 -66.5c0 -7.33301 1.33301 -14 4 -20s6.33398 -9 11.001 -9c2.66699 0 5.16699 2.16699 7.5 6.5s4 9.5 5 15.5s1.83301 12.333 2.5 19s1 12.667 1 18c0 13.333 4.33301 24.666 13 33.999s19.334 14 32.001 14
c12 0 22.667 -4.66699 32 -14s14 -20.666 14 -33.999c0 -16.667 -2.16699 -34 -6.5 -52s-10.833 -34.667 -19.5 -50s-19.834 -28 -33.501 -38s-29.5 -15 -47.5 -15c-15.333 0 -29.5 3.5 -42.5 10.5s-24.167 16.333 -33.5 28s-16.666 25 -21.999 40s-8 30.5 -8 46.5z
M662.998 876c0 -1.33301 -0.166992 -2.33301 -0.5 -3s-0.5 -1.66699 -0.5 -3l-31 -1286c-5.33301 -26 -20 -39 -44 -39c-12 0 -22.667 4.83301 -32 14.5s-14 20.834 -14 33.501v5l12 507c-29.333 -43.333 -64.833 -78.333 -106.5 -105s-89.5 -40 -143.5 -40
c-59.333 0 -110.833 13.833 -154.5 41.5s-79.834 64 -108.501 109s-50 96.333 -64 154s-21 116.167 -21 175.5c0 45.333 3.33301 89.333 10 132s17.667 83 33 121s35.333 73.167 60 105.5s54.667 60.5 90 84.5c6.66699 4.66699 15 7 25 7
c6.66699 0 12.834 -1.66699 18.501 -5s10.5 -7.66602 14.5 -12.999c18 16 38.333 28.667 61 38s47.667 14 75 14c24.667 0 48 -4 70 -12s42.5 -19.333 61.5 -34s36.333 -31.834 52 -51.501s30.167 -40.834 43.5 -63.501l3 121c6.66699 27.333 21.667 41 45 41
c13.333 0 24.333 -5.16699 33 -15.5s13 -21.5 13 -33.5z" />
    <glyph glyph-name="R" unicode="R" horiz-adv-x="882" 
d="M250 623c1.33301 18.667 3.16602 37.833 5.49902 57.5s5.5 38.834 9.5 57.501s9 36.167 15 52.5s13 30.166 21 41.499c-28 -1.33301 -57 -7 -87 -17s-57.5 -24.167 -82.5 -42.5s-45.5 -41 -61.5 -68s-24 -58.5 -24 -94.5c0 -8.66699 2 -17 6 -25s9 -15.167 15 -21.5
s12.833 -11.333 20.5 -15s15.167 -5.5 22.5 -5.5c8 0 15 2.66699 21 8s11.167 12.333 15.5 21s7.5 18 9.5 28s3 19.667 3 29c0 14 4.33301 25.333 13 34s19.334 13 32.001 13c12 0 22.667 -4.33301 32 -13s14 -20 14 -34v-6zM399 813.999
c0 -14 -4.66602 -25.332 -13.999 -33.999s-20 -13 -32 -13c-2.66699 0 -4.83398 -9 -6.50098 -27s-3 -40 -4 -66s-1.66699 -53.333 -2 -82s-0.5 -53.334 -0.5 -74.001c11.333 11.333 24.333 20 39 26s27.667 9 39 9c16.667 0 33 -2.5 49 -7.5s30.667 -11.5 44 -19.5
c13.333 15.333 22.5 35.333 27.5 60s7.5 47.667 7.5 69c0 20.667 -3.66699 39.5 -11 56.5s-17 32.167 -29 45.5s-25.667 25 -41 35s-31.333 18 -48 24c-3.33301 1.33301 -6.5 2.33301 -9.5 3s-6.16699 1.66699 -9.5 3c0.666992 -2 1 -4.66699 1 -8zM875.001 187
c0 -30.667 -4.99414 -59.6689 -14.9941 -87.002s-23.667 -51.333 -41 -72s-37.833 -37 -61.5 -49s-49.5 -18 -77.5 -18c-25.333 0 -47.833 6 -67.5 18s-36.334 27.833 -50.001 47.5s-24.167 41.667 -31.5 66s-11 49.166 -11 74.499v165c0 12 -1.16699 23.667 -3.5 35
s-6.16602 21.666 -11.499 30.999c-13.333 -6.66699 -27.333 -11.834 -42 -15.501s-29.334 -5.5 -44.001 -5.5c-11.333 0 -24.5 3.5 -39.5 10.5s-28.167 16.167 -39.5 27.5c0 -2.66699 0.166992 -5.16699 0.5 -7.5s0.5 -4.83301 0.5 -7.5
c0 -12.667 0.166992 -25.167 0.5 -37.5s0.5 -24.5 0.5 -36.5c0 -42.667 -2.83301 -85.667 -8.5 -129s-16.667 -82.5 -33 -117.5s-39.5 -63.5 -69.5 -85.5s-69 -33 -117 -33c-12 0 -25.167 1.83301 -39.5 5.5s-27.5 9.66699 -39.5 18s-22 18.833 -30 31.5s-12 28 -12 46
c0 12.667 2.33301 24.5 7 35.5s10.834 20.667 18.501 29s16.667 14.833 27 19.5s21.166 7 32.499 7c13.333 0 24.333 -4.16699 33 -12.5s13 -20.166 13 -35.499c0 -16 -3.5 -27 -10.5 -33s-15.167 -10.667 -24.5 -14c3.33301 -1.33301 7.33301 -2 12 -2h13
c30.667 0 55 8.66699 73 26s31.667 39.333 41 66s15.333 55.834 18 87.501s4 61.834 4 90.501c0 16 -0.166992 31.833 -0.5 47.5s-0.833008 31.5 -1.5 47.5s-1 32.333 -1 49v49c0 10 0.166992 24 0.5 42s1.16602 38 2.49902 60
c-0.666992 -21.333 -4.33398 -42.333 -11.001 -63s-16 -39.167 -28 -55.5s-26.5 -29.666 -43.5 -39.999s-36.167 -15.5 -57.5 -15.5c-18.667 0 -37.167 4.5 -55.5 13.5s-34.833 21 -49.5 36s-26.667 32.333 -36 52s-14 40.167 -14 61.5c0 53.333 11.333 99.833 34 139.5
s51.667 72.834 87 99.501s74.166 46.5 116.499 59.5s83.5 19.5 123.5 19.5c35.333 0 71.833 -5.16699 109.5 -15.5s72.167 -26.666 103.5 -48.999s57.166 -50.666 77.499 -84.999s30.5 -75.5 30.5 -123.5c0 -34.667 -5.16699 -69.167 -15.5 -103.5
s-25.833 -64.5 -46.5 -90.5c13.333 -18.667 22.666 -39 27.999 -61s8 -44.667 8 -68v-165c0 -12.667 1.5 -25.5 4.5 -38.5s7.33301 -24.833 13 -35.5s12.834 -19.5 21.501 -26.5s18.667 -10.5 30 -10.5c14.667 0 28.5 3.66699 41.5 11s24 17 33 29s16.167 25.833 21.5 41.5
s8 32.167 8 49.5c0 8.66699 -2 16.5 -6 23.5s-9 10.5 -15 10.5l-2 -8c-3.33301 -11.333 -7.33301 -21.333 -12 -30s-15.667 -13 -33 -13c-12.667 0 -23.334 4.66699 -32.001 14s-13 20.666 -13 33.999c0 29.333 9.16699 53 27.5 71s39.833 27 64.5 27
c16 0 30.833 -3.5 44.5 -10.5s25.5 -16.333 35.5 -28s17.833 -25.334 23.5 -41.001s8.5 -32.167 8.5 -49.5z" />
    <glyph glyph-name="S" unicode="S" horiz-adv-x="389" 
d="M468 779c0 12 -3.33008 23.665 -9.99707 34.998s-15.334 17 -26.001 17c-28.667 0 -51.334 -8.83301 -68.001 -26.5s-29.334 -39.834 -38.001 -66.501s-14.334 -55.667 -17.001 -87s-4 -61 -4 -89c20.667 8 40.834 18.833 60.501 32.5s37.167 29.834 52.5 48.501
s27.5 39.334 36.5 62.001s13.5 47.334 13.5 74.001zM213.003 543.998c0 24.667 1.00098 50.3291 3.00098 76.9961s5.33301 53.334 10 80.001s11.167 52.334 19.5 77.001s19.166 47 32.499 67c-4 -5.33301 -9 -9.16602 -15 -11.499s-12 -3.5 -18 -3.5
c-18 0 -35.667 -3.33301 -53 -10s-32.833 -16 -46.5 -28s-24.834 -26.667 -33.501 -44s-13 -36.666 -13 -57.999c0 -19.333 2.5 -37.833 7.5 -55.5s12.333 -33.167 22 -46.5s21.334 -24 35.001 -32s29.167 -12 46.5 -12h3zM560.004 778.993
c0 -41.333 -7.16406 -79.501 -21.4971 -114.501s-33.166 -66 -56.499 -93s-50.333 -49.833 -81 -68.5s-62.334 -32.667 -95.001 -42c0 -8 0.166992 -15.667 0.5 -23s0.833008 -15 1.5 -23l2 -44c0.666992 -14.667 1 -29.667 1 -45c0 -43.333 -3.16699 -86.666 -9.5 -129.999
s-18.333 -82.5 -36 -117.5s-41.667 -63.5 -72 -85.5s-69.5 -33 -117.5 -33c-12 0 -25.167 2 -39.5 6s-27.5 10 -39.5 18s-22 18.5 -30 31.5s-12 28.5 -12 46.5c0 12.667 2.33301 24.5 7 35.5s10.834 20.667 18.501 29s16.667 14.833 27 19.5s21.166 7 32.499 7
c13.333 0 24.333 -4.66699 33 -14s13 -20.666 13 -33.999c0 -15.333 -3.33301 -26.333 -10 -33s-14.334 -11.334 -23.001 -14.001c3.33301 -1.33301 7 -2 11 -2h12c30.667 0 55.5 8.5 74.5 25.5s33.667 38.5 44 64.5s17.166 55 20.499 87s5 63 5 93
c0 21.333 -0.5 42 -1.5 62s-2.16699 40 -3.5 60h-5c-30.667 0 -58.334 6.33301 -83.001 19s-45.834 30 -63.501 52s-31.334 47.667 -41.001 77s-14.5 60.666 -14.5 93.999c0 35.333 6.83301 67.5 20.5 96.5s31.834 53.833 54.501 74.5s48 36.667 76 48s56.667 17 86 17
c12 0 22.667 -4.66699 32 -14s14 -20.666 14 -33.999c0 -9.33301 -2 -17.333 -6 -24c16 22 36 39.667 60 53s53 20 87 20c18 0 34.667 -4.16699 50 -12.5s28.833 -19.333 40.5 -33s20.834 -29.5 27.501 -47.5s10 -36.333 10 -55z" />
    <glyph glyph-name="T" unicode="T" horiz-adv-x="539" 
d="M403 813c0 5.33301 -3.66699 9.33301 -11 12s-13.666 4 -18.999 4c-8.66699 0 -17.834 -1 -27.501 -3s-18.5 -4.66699 -26.5 -8c20 -11.333 41.333 -17 64 -17c4 0 8.33301 1 13 3s7 5 7 9zM532 187c0 -30.667 -5.32715 -59.666 -15.9941 -86.999
s-25.167 -51.333 -43.5 -72s-39.666 -37.167 -63.999 -49.5s-50.166 -18.5 -77.499 -18.5c-49.333 0 -92.5 9.83301 -129.5 29.5s-68.167 46.5 -93.5 80.5s-44.333 73.833 -57 119.5s-19 94.5 -19 146.5c0 40 2.66699 81.667 8 125s13.666 85.833 24.999 127.5
s25.833 81.667 43.5 120s38.5 72.833 62.5 103.5c-7.33301 6 -15.333 11.333 -24 16s-17 7 -25 7c-14.667 0 -30.167 -3.16699 -46.5 -9.5s-31.333 -14.5 -45 -24.5s-25 -21.333 -34 -34s-13.5 -25 -13.5 -37c0 -7.33301 1.66699 -12 5 -14
c4.66699 2.66699 8.66699 8.66699 12 18c4.66699 10.667 10.167 20.5 16.5 29.5s18.166 13.5 35.499 13.5c15.333 0 26.333 -5 33 -15s10 -21 10 -33c-2.66699 -12.667 -7.33398 -25 -14.001 -37s-15.167 -22.667 -25.5 -32s-22 -16.833 -35 -22.5s-27.167 -8.5 -42.5 -8.5
c-30.667 2 -52.834 12.667 -66.501 32s-20.5 41 -20.5 65s7 47.667 21 71s32.167 44.166 54.5 62.499s47.166 33.166 74.499 44.499s54.666 17 81.999 17c28 0 50.333 -3.83301 67 -11.5s32.667 -17.834 48 -30.501c40.667 30 85.667 45 135 45
c13.333 0 27.166 -2.66699 41.499 -8s27.333 -12.666 39 -21.999s21.334 -21 29.001 -35s11.5 -29.333 11.5 -46c0 -17.333 -3.33301 -32.5 -10 -45.5s-15.167 -24.167 -25.5 -33.5s-22.166 -16.333 -35.499 -21s-26.666 -7 -39.999 -7c-27.333 0 -52.333 4.33301 -75 13
s-44.334 20.334 -65.001 35.001c-21.333 -26 -39.666 -55.833 -54.999 -89.5s-27.833 -69 -37.5 -106s-16.667 -74.5 -21 -112.5s-6.5 -74.667 -6.5 -110c0 -38 4.16699 -73.833 12.5 -107.5s21.166 -63.334 38.499 -89.001s39 -46 65 -61s56.667 -22.5 92 -22.5
c15.333 0 29.666 3.5 42.999 10.5s25 16.5 35 28.5s17.833 25.833 23.5 41.5s8.5 32.5 8.5 50.5c0 8.66699 -1.83301 16.5 -5.5 23.5s-8.5 10.5 -14.5 10.5s-9.66699 -1 -11 -3s-2.33301 -4 -3 -6c-3.33301 -10 -7.33301 -18.5 -12 -25.5s-15.334 -10.5 -32.001 -10.5
c-12.667 0 -23.334 4.33301 -32.001 13s-13 20.667 -13 36s3.33301 28.833 10 40.5s15 21.334 25 29.001s21 13.334 33 17.001s23.667 5.5 35 5.5c16 0 30.833 -3.66699 44.5 -11s25.5 -17 35.5 -29s17.667 -25.833 23 -41.5s8 -31.834 8 -48.501z" />
    <glyph glyph-name="U" unicode="U" horiz-adv-x="929" 
d="M177 675c3.33301 0 6.00098 -0.333984 8.00098 -1.00098v40c0 10 -0.833008 21.667 -2.5 35s-4.5 25.666 -8.5 36.999s-9.33301 21 -16 29s-14.667 12 -24 12c-14.667 0 -27.5 -5.5 -38.5 -16.5s-20.167 -24.5 -27.5 -40.5s-12.833 -33.167 -16.5 -51.5
s-5.5 -35.166 -5.5 -50.499c0 -10 0.666992 -22.167 2 -36.5s3.66602 -28 6.99902 -41s7.83301 -24.167 13.5 -33.5s13.167 -14 22.5 -14c6.66699 0 12.667 2.83301 18 8.5s9.66602 12.834 12.999 21.501s5.83301 17.834 7.5 27.501s2.5 18.5 2.5 26.5
c0 15.333 4.33301 27.166 13 35.499s19.334 12.5 32.001 12.5zM922.001 186.999c0 -30.667 -5.00195 -59.6689 -15.002 -87.002s-23.667 -51.333 -41 -72s-37.833 -37 -61.5 -49s-49.5 -18 -77.5 -18c-32.667 0 -62.5 8.16699 -89.5 24.5s-49.167 39.166 -66.5 68.499
c-19.333 -30 -43 -53 -71 -69s-60 -24 -96 -24c-34 0 -64.5 8.33301 -91.5 25s-50 38.334 -69 65.001s-33.5 56.834 -43.5 90.501s-15 67.5 -15 101.5v258c-11.333 -16 -24.833 -29 -40.5 -39s-33.5 -15 -53.5 -15c-26 0 -47.667 7.5 -65 22.5s-31.166 33.5 -41.499 55.5
s-17.833 45.833 -22.5 71.5s-7 49.5 -7 71.5c0 28 3.83301 57 11.5 87s19.167 57.5 34.5 82.5s34 45.5 56 61.5s47.667 24 77 24c25.333 0 47 -6.66699 65 -20s32.667 -30.333 44 -51s19.666 -43.167 24.999 -67.5s8 -47.833 8 -70.5v-471c0 -22 2.83301 -44 8.5 -66
s14 -42 25 -60s24.5 -32.667 40.5 -44s34 -17 54 -17s38.167 5 54.5 15s30 23.167 41 39.5s19.5 35 25.5 56s9 42.5 9 64.5v646c0 13.333 4.33301 24.666 13 33.999s19.334 14 32.001 14c12 0 22.667 -4.66699 32 -14s14 -20.666 14 -33.999v-690
c0 -16.667 2.5 -32.834 7.5 -48.501s12 -29.667 21 -42s19.833 -22.166 32.5 -29.499s26.334 -11 41.001 -11s28.5 3.66699 41.5 11s24 17 33 29s16.167 25.833 21.5 41.5s8 32.167 8 49.5c0 8.66699 -2 16.667 -6 24s-9 11 -15 11l-2 -8
c-3.33301 -11.333 -7.33301 -21.166 -12 -29.499s-15.667 -12.5 -33 -12.5c-12.667 0 -23.334 4.33301 -32.001 13s-13 20 -13 34c0 29.333 9.16699 53 27.5 71s39.833 27 64.5 27c16.667 0 31.834 -3.5 45.501 -10.5s25.5 -16.5 35.5 -28.5s17.667 -25.833 23 -41.5
s8 -32.167 8 -49.5z" />
    <glyph glyph-name="V" unicode="V" horiz-adv-x="660" 
d="M454 823c0 -5.33301 1.83301 -9.99902 5.5 -13.999s8.16699 -7.5 13.5 -10.5s11.166 -5.33301 17.499 -7s12.5 -2.83398 18.5 -3.50098c-4 10 -8.5 19 -13.5 27s-10.833 12 -17.5 12c-3.33301 0 -8.16602 -0.333008 -14.499 -1s-9.5 -1.66699 -9.5 -3zM179 675.001
c2.66699 0 4.66699 -0.330078 6 -0.99707v40c0 10 -0.833008 21.667 -2.5 35s-4.5 25.666 -8.5 36.999s-9.33301 21 -16 29s-14.667 12 -24 12c-14.667 0 -27.5 -5.5 -38.5 -16.5s-20.167 -24.5 -27.5 -40.5s-12.833 -33.333 -16.5 -52s-5.5 -35.334 -5.5 -50.001
c0 -10 0.666992 -22.167 2 -36.5s3.83301 -28 7.5 -41s8.5 -24.167 14.5 -33.5s13.667 -14 23 -14c6.66699 0 12.5 2.83301 17.5 8.5s9.16699 12.667 12.5 21s5.83301 17.5 7.5 27.5s2.5 19 2.5 27c0 13.333 4.66699 24.666 14 33.999s20 14 32 14zM734 812.004
c0 -10.667 -3.83105 -21.0029 -11.498 -31.0029s-17.167 -19.167 -28.5 -27.5s-23.333 -16 -36 -23s-24 -12.833 -34 -17.5c9.33301 -45.333 15.166 -90.666 17.499 -135.999s3.5 -90.666 3.5 -135.999c0 -28 -1 -59.333 -3 -94s-6 -69.834 -12 -105.501
s-14.5 -70.334 -25.5 -104.001s-25.5 -63.667 -43.5 -90s-39.833 -47.5 -65.5 -63.5s-56.167 -24 -91.5 -24c-34 0 -64.5 8.33301 -91.5 25s-50 38.5 -69 65.5s-33.5 57.333 -43.5 91s-15 67.5 -15 101.5v254c-11.333 -15.333 -24.666 -27.5 -39.999 -36.5
s-32.666 -13.5 -51.999 -13.5c-26 0 -47.667 7.5 -65 22.5s-31.5 33.5 -42.5 55.5s-18.833 45.833 -23.5 71.5s-7 49.5 -7 71.5c0 28 3.83301 57 11.5 87s19.167 57.333 34.5 82s34 45 56 61s47.667 24 77 24c25.333 0 47 -6.66699 65 -20s32.667 -30.166 44 -50.499
s19.666 -42.833 24.999 -67.5s8 -48 8 -70v-471c0 -22 2.83301 -44 8.5 -66s14 -42 25 -60s24.5 -32.667 40.5 -44s34 -17 54 -17c22.667 0 42.167 6.66699 58.5 20s30 31 41 53s19.833 46.833 26.5 74.5s11.834 55.667 15.501 84s6 56 7 83s1.5 50.5 1.5 70.5
c0 42.667 -1.33301 85.167 -4 127.5s-8 83.5 -16 123.5h-13c-16 0 -33.167 2.5 -51.5 7.5s-35.5 12.833 -51.5 23.5s-29.167 24.334 -39.5 41.001s-15.5 36.334 -15.5 59.001c0 18 3.66699 33.167 11 45.5s16.666 22.5 27.999 30.5s23.666 13.833 36.999 17.5
s26.333 5.5 39 5.5c16.667 0 31.334 -3.33301 44.001 -10s24 -15.5 34 -26.5s18.5 -23.5 25.5 -37.5s13.167 -28 18.5 -42c11.333 5.33301 21 11.333 29 18l29 24l-2 -1c5.33301 5.33301 10.666 9 15.999 11s10.666 3 15.999 3c12 0 22.667 -5.16699 32 -15.5
s14 -21.5 14 -33.5z" />
    <glyph glyph-name="W" unicode="W" horiz-adv-x="1017" 
d="M799 823c0 -10.667 6.16797 -18.668 18.501 -24.001s24.166 -8.66602 35.499 -9.99902c-4 10 -8.66699 18.833 -14 26.5s-11 11.5 -17 11.5c-3.33301 0 -8 -0.333008 -14 -1s-9 -1.66699 -9 -3zM176.001 674.999c1.33301 0 2.83301 -0.166992 4.5 -0.5
s3.16699 -0.5 4.5 -0.5v40c0 10 -0.833008 21.667 -2.5 35s-4.5 25.666 -8.5 36.999s-9.33301 21 -16 29s-14.667 12 -24 12c-14.667 0 -27.5 -5.5 -38.5 -16.5s-20.167 -24.5 -27.5 -40.5s-12.833 -33.333 -16.5 -52s-5.5 -35.334 -5.5 -50.001
c0 -9.33301 0.666992 -21.166 2 -35.499s3.5 -28.166 6.5 -41.499s7.33301 -24.666 13 -33.999s13.167 -14 22.5 -14c6.66699 0 12.5 2.83301 17.5 8.5s9.16699 12.667 12.5 21s5.83301 17.5 7.5 27.5s2.5 19 2.5 27c0 13.333 4.66699 24.666 14 33.999s20 14 32 14z
M1079 811.999c0 -10.667 -3.82812 -21.0039 -11.4951 -31.0039s-17.167 -19.167 -28.5 -27.5s-23.333 -16 -36 -23s-24 -12.833 -34 -17.5c9.33301 -45.333 15.166 -90.666 17.499 -135.999s3.5 -90.666 3.5 -135.999c0 -28 -1 -59.333 -3 -94
s-6.16699 -69.834 -12.5 -105.501s-15 -70.334 -26 -104.001s-25.333 -63.667 -43 -90s-39.5 -47.5 -65.5 -63.5s-56.667 -24 -92 -24c-37.333 0 -70.333 9.16699 -99 27.5s-52.667 43.5 -72 75.5c-19.333 -32.667 -43.5 -58 -72.5 -76s-62.5 -27 -100.5 -27
c-34 0 -64.5 8.33301 -91.5 25s-50 38.5 -69 65.5s-33.5 57.333 -43.5 91s-15 67.5 -15 101.5v258c-11.333 -16 -24.833 -29 -40.5 -39s-33.834 -15 -54.501 -15c-26 0 -47.5 7.5 -64.5 22.5s-30.833 33.667 -41.5 56s-18.167 46.333 -22.5 72s-6.5 49.167 -6.5 70.5
c0 28 3.83301 57 11.5 87s19.167 57.333 34.5 82s34 45 56 61s47.667 24 77 24c25.333 0 47 -6.66699 65 -20s32.667 -30.166 44 -50.499s19.666 -42.833 24.999 -67.5s8 -48 8 -70v-471c0 -22 2.83301 -44 8.5 -66s14 -42 25 -60s24.5 -32.667 40.5 -44s34 -17 54 -17
s37.667 4.5 53 13.5s28.5 21 39.5 36s19.5 32.5 25.5 52.5s9.66699 41 11 63c0.666992 8 1 15.667 1 23v24v609c0 14 4.33301 25.333 13 34s19.334 13 32.001 13c12 0 22.667 -4.33301 32 -13s14 -20 14 -34v-665c0 -21.333 3 -41.333 9 -60s14.5 -35.167 25.5 -49.5
s24 -25.666 39 -33.999s31.5 -12.5 49.5 -12.5c22.667 0 42.167 6.66699 58.5 20s30 31 41 53s20 46.833 27 74.5s12.333 55.667 16 84s6 56 7 83s1.5 50.5 1.5 70.5c0 44 -1.33301 86.667 -4 128s-7.66699 82.333 -15 123h-14c-16 0 -33.167 2.5 -51.5 7.5
s-35.5 12.833 -51.5 23.5s-29.167 24.334 -39.5 41.001s-15.5 36.334 -15.5 59.001c0 18 3.66699 33.167 11 45.5s16.5 22.5 27.5 30.5s23.167 13.833 36.5 17.5s26.333 5.5 39 5.5c16 0 30.5 -3.33301 43.5 -10s24.5 -15.5 34.5 -26.5s18.833 -23.5 26.5 -37.5
s14.167 -28 19.5 -42c9.33301 5.33301 18.666 11.5 27.999 18.5s19 14.833 29 23.5l-2 -1c5.33301 5.33301 10.666 9 15.999 11s10.666 3 15.999 3c12 0 22.667 -5.16699 32 -15.5s14 -21.5 14 -33.5z" />
    <glyph glyph-name="X" unicode="X" horiz-adv-x="799" 
d="M674 759c0 4.66699 -0.331055 10.833 -0.998047 18.5s-1.83398 15.167 -3.50098 22.5s-4 13.5 -7 18.5s-6.83301 7.5 -11.5 7.5c-26.667 0 -50 -8.66699 -70 -26s-37.333 -39 -52 -65s-26.834 -54.5 -36.501 -85.5s-17.5 -59.833 -23.5 -86.5
c23.333 9.33301 47.166 20 71.499 32s46.333 26 66 42s35.834 34 48.501 54s19 42.667 19 68zM72.002 160.999c0 -6 0.49707 -13.668 1.49707 -23.001s2.5 -18.5 4.5 -27.5s4.66699 -16.667 8 -23s7.66602 -9.5 12.999 -9.5c29.333 0 54.833 10.667 76.5 32
s40.334 48 56.001 80s28.834 66.667 39.501 104s19.334 72 26.001 104c-25.333 -11.333 -51.166 -24.333 -77.499 -39s-50.333 -31.667 -72 -51s-39.5 -41.166 -53.5 -65.499s-21.333 -51.5 -22 -81.5zM170.999 927.998c32.667 0 61.3379 -7.83789 86.0049 -23.5049
s46 -36 64 -61s33 -53.167 45 -84.5s21.333 -62.333 28 -93c10.667 32 23.334 63.5 38.001 94.5s32.334 58.5 53.001 82.5s44.667 43.333 72 58s58.666 22 93.999 22c22 0 40.5 -5.5 55.5 -16.5s27.333 -24.667 37 -41s16.667 -34.166 21 -53.499s6.5 -37 6.5 -53
c0 -43.333 -10.167 -81.333 -30.5 -114s-46 -61.167 -77 -85.5s-65.333 -45 -103 -62s-73.5 -31.5 -107.5 -43.5c-0.666992 -5.33301 -1 -10.666 -1 -15.999v-15c0 -14.667 1 -34 3 -58s5.33301 -49.5 10 -76.5s10.667 -54.333 18 -82s16.166 -52.5 26.499 -74.5
s22.5 -40 36.5 -54s30 -21 48 -21s34.167 3.66699 48.5 11s26.666 17 36.999 29s18.333 25.833 24 41.5s8.5 32.167 8.5 49.5c0 8 -2.33301 15.667 -7 23s-11 11 -19 11c-3.33301 0 -5.33301 -0.833008 -6 -2.5s-1.33398 -3.5 -2.00098 -5.5
c-3.33301 -11.333 -7.5 -21.166 -12.5 -29.499s-16.833 -12.5 -35.5 -12.5c-13.333 0 -24.5 4.16699 -33.5 12.5s-13.5 20.166 -13.5 35.499c0 14.667 2.83301 28 8.5 40s13.334 22.333 23.001 31s20.667 15.334 33 20.001s25.166 7 38.499 7
c17.333 0 33.5 -3.66699 48.5 -11s28 -17 39 -29s19.667 -25.833 26 -41.5s9.5 -31.834 9.5 -48.501c0 -30 -5.16699 -58.667 -15.5 -86s-25 -51.5 -44 -72.5s-41.667 -37.667 -68 -50s-55.5 -18.5 -87.5 -18.5c-24 0 -46 5 -66 15s-38 23.667 -54 41s-30 37.5 -42 60.5
s-22.333 47.167 -31 72.5c-6.66699 19.333 -12.334 38.5 -17.001 57.5s-8.66699 37.5 -12 55.5c-10.667 -36.667 -24.167 -72.5 -40.5 -107.5s-35.833 -66 -58.5 -93s-48.334 -48.667 -77.001 -65s-61 -24.5 -97 -24.5c-22.667 0 -42 6.33301 -58 19
s-29.167 28.5 -39.5 47.5s-17.833 39.333 -22.5 61s-7 41.834 -7 60.501c0 53.333 11.833 99.5 35.5 138.5s53.5 72.833 89.5 101.5c32.667 25.333 68 47.5 106 66.5s75 33.833 111 44.5v19c0 12.667 -1 29 -3 49s-5.33301 41.333 -10 64s-10.667 45.667 -18 69
s-16.333 44.333 -27 63s-23 33.834 -37 45.501s-30 17.5 -48 17.5s-34.333 -3 -49 -9s-27.167 -14 -37.5 -24s-18.333 -21.5 -24 -34.5s-8.5 -26.5 -8.5 -40.5c0 -6 2.33301 -11.667 7 -17s11 -8 19 -8c4.66699 0 7.66699 2.33301 9 7l-1 -2
c2.66699 9.33301 6.66699 18 12 26s17.666 12 36.999 12c12.667 0 23.834 -4.16699 33.501 -12.5s14.5 -19.166 14.5 -32.499c0 -12.667 -3 -24.334 -9 -35.001s-14 -19.834 -24 -27.501s-21.333 -13.667 -34 -18s-25.334 -6.5 -38.001 -6.5c-18 0 -34.5 3.16699 -49.5 9.5
s-28 14.833 -39 25.5s-19.5 22.834 -25.5 36.501s-9 27.834 -9 42.501c0 26 5.16699 51 15.5 75s25 45 44 63s41.833 32.333 68.5 43s56 16 88 16z" />
    <glyph glyph-name="Y" unicode="Y" horiz-adv-x="738" 
d="M177 674c3.33301 0 6.00098 -0.333008 8.00098 -1v38c0 10.667 -0.833008 22.667 -2.5 36s-4.5 26 -8.5 38s-9.33301 22 -16 30s-14.667 12 -24 12c-14.667 0 -27.5 -5.5 -38.5 -16.5s-20.167 -24.5 -27.5 -40.5s-12.833 -33.333 -16.5 -52s-5.5 -35.667 -5.5 -51
c0 -10 0.666992 -22.167 2 -36.5s3.66602 -28.333 6.99902 -42s7.83301 -25.167 13.5 -34.5s13.167 -14 22.5 -14c6.66699 0 12.5 3 17.5 9s9.16699 13.167 12.5 21.5s5.83301 17.5 7.5 27.5s2.5 19 2.5 27c0 13.333 4.66699 24.833 14 34.5s20 14.5 32 14.5zM534.001 -126
l-19.9961 -12l1 1c-22.667 -13.333 -45.834 -27.833 -69.501 -43.5s-45.334 -33.334 -65.001 -53.001s-35.834 -42 -48.501 -67s-19 -53.5 -19 -85.5c0 -15.333 1.66699 -30.666 5 -45.999s8 -29.333 14 -42s13.167 -23.167 21.5 -31.5s17.833 -12.833 28.5 -13.5
c26.667 2.66699 49.667 15.5 69 38.5s35.166 51 47.499 84s21.333 68.333 27 106s8.5 73.167 8.5 106.5v58zM785.005 177c0 -1.33301 -0.165039 -3.33008 -0.498047 -5.99707s-1.83301 -6.66699 -4.5 -12l2 3c-16.667 -47.333 -37.834 -89.666 -63.501 -126.999
s-56.834 -70 -93.501 -98v-121c0 -47.333 -4.33301 -96.833 -13 -148.5s-22.667 -99.167 -42 -142.5s-44.333 -79 -75 -107s-68.334 -42 -113.001 -42c-25.333 0 -47.833 7 -67.5 21s-36.334 32.167 -50.001 54.5s-24.167 47.666 -31.5 75.999s-11 57.166 -11 86.499
c0 47.333 7.5 88.333 22.5 123s34.333 65 58 91s50.167 48.833 79.5 68.5s58.333 38.167 87 55.5c14 8.66699 25.5 15.5 34.5 20.5s19.167 11.833 30.5 20.5v12c-37.333 -34 -80.666 -51 -129.999 -51c-34 0 -64.5 8.5 -91.5 25.5s-50 39 -69 66s-33.5 57.5 -43.5 91.5
s-15 68 -15 102v259c-11.333 -16 -24.833 -28.833 -40.5 -38.5s-33.5 -14.5 -53.5 -14.5c-26 0 -47.667 7.5 -65 22.5s-31.166 33.667 -41.499 56s-17.833 46.5 -22.5 72.5s-7 49.667 -7 71c0 27.333 3.83301 56 11.5 86s19.167 57.5 34.5 82.5s34 45.667 56 62
s47.667 24.5 77 24.5c25.333 0 47 -6.83301 65 -20.5s32.667 -30.834 44 -51.501s19.666 -43.334 24.999 -68.001s8 -48.334 8 -71.001v-472c0 -22 2.83301 -44.167 8.5 -66.5s14 -42.666 25 -60.999s24.5 -33.166 40.5 -44.499s34 -17 54 -17s38.167 5 54.5 15
s30 23.333 41 40s19.5 35.667 25.5 57s9 43 9 65v650c0 13.333 4.33301 24.5 13 33.5s19.334 13.5 32.001 13.5c13.333 0 24.333 -4.66699 33 -14s13 -20.666 13 -33.999v-806c21.333 24 39 52.333 53 85l3 5c2 3.33301 3 5.33301 3 6c0 1.33301 0.666992 3.66602 2 6.99902
c4.66699 11.333 11 22.833 19 34.5s19 17.5 33 17.5c11.333 0 22 -4.83301 32 -14.5s15 -20.834 15 -33.501z" />
    <glyph glyph-name="Z" unicode="Z" horiz-adv-x="645" 
d="M678 140c0 -2 -0.668945 -5.66406 -2.00195 -10.9971v-3c-9.33301 -23.333 -21.666 -45.166 -36.999 -65.499s-32.5 -38 -51.5 -53s-39.333 -26.833 -61 -35.5s-43.834 -13 -66.501 -13c-42.667 0 -85 6 -127 18s-82.333 24.667 -121 38
c-3.33301 1.33301 -6 2.33301 -8 3s-3.83301 1.16699 -5.5 1.5s-3.5 0.833008 -5.5 1.5l-9 3c-13.333 -16 -29.833 -30.833 -49.5 -44.5s-39.834 -20.5 -60.501 -20.5c-11.333 0 -23.833 1.66699 -37.5 5s-26.5 8.66602 -38.5 15.999s-22.167 17 -30.5 29
s-12.5 26.667 -12.5 44c0 18 4 33 12 45s18 21.667 30 29s24.833 12.5 38.5 15.5s26.167 4.5 37.5 4.5c13.333 0 26 -1 38 -3s23.667 -4.66699 35 -8c7.33301 13.333 14.166 27.333 20.499 42l19.5 45l17 40.5c6 13.667 12.333 26.834 19 39.501v-1
c7.33301 14 14 28.167 20 42.5s12.333 28.5 19 42.5c2 4.66699 4.16699 9.16699 6.5 13.5s4.5 8.83301 6.5 13.5c-5.33301 -0.666992 -10.5 -2 -15.5 -4s-9.5 -4 -13.5 -6c-5.33301 -2 -8.5 -3.83301 -9.5 -5.5s-6.16699 -2.5 -15.5 -2.5
c-12.667 0 -23.334 4.33301 -32.001 13s-13 19.667 -13 33c0 10 4.33301 19.333 13 28s18.667 16 30 22s23 10.833 35 14.5s21 5.5 27 5.5s12 -0.333008 18 -1s12.333 -2 19 -4l34 78.5l33 80.5l12 29l12 30c2 6 3.66699 10.667 5 14s2.5 6.5 3.5 9.5s2.33301 6.33301 4 10
l6.5 14.5l-84.5 20.5l-84.5 21.5l2 -1c-3.33301 0.666992 -7 1.5 -11 2.5s-8.33301 2.16699 -13 3.5l-17.5 4c-5.66699 1.33301 -11.5 2 -17.5 2c-13.333 0 -27.666 -2 -42.999 -6s-29.333 -10.167 -42 -18.5s-23.167 -18.833 -31.5 -31.5s-12.5 -27.667 -12.5 -45
c0 -15.333 4 -30 12 -44s18.333 -21 31 -21c9.33301 0 18 3.16699 26 9.5s12 15.166 12 26.499c0 14 4.33301 25.333 13 34s19.334 13 32.001 13c12 0 22.667 -4.33301 32 -13s14 -20 14 -34c0 -20 -3.66699 -38 -11 -54s-17.166 -29.667 -29.499 -41
s-26.166 -20.166 -41.499 -26.499s-31 -9.5 -47 -9.5c-20 0 -38.167 4.5 -54.5 13.5s-30.333 21 -42 36s-20.834 32 -27.501 51s-10 38.833 -10 59.5c0 32 7 60.333 21 85s31.667 45.334 53 62.001s45 29.167 71 37.5s51 12.5 75 12.5c23.333 0 46.166 -2.66699 68.499 -8
s44.166 -11.333 65.499 -18c8 -2.66699 16.5 -5.33398 25.5 -8.00098s17.5 -5 25.5 -7l41.5 -11c10.333 -2.66699 24.166 -6 41.499 -10c12.667 18 27.5 32.5 44.5 43.5s36.833 16.5 59.5 16.5c10 0 21.167 -1.5 33.5 -4.5s23.666 -7.83301 33.999 -14.5s19 -15.5 26 -26.5
s10.5 -24.167 10.5 -39.5c0 -14.667 -3.5 -27.334 -10.5 -38.001s-15.667 -19.5 -26 -26.5s-21.5 -12.167 -33.5 -15.5s-23.333 -5 -34 -5c-9.33301 0 -18.166 0.166992 -26.499 0.5s-17.833 1.5 -28.5 3.5c-4.66699 -10.667 -9.33398 -22.5 -14.001 -35.5
s-9.66699 -25.833 -15 -38.5l-10.5 -26l-10.5 -26v1l-17 -42.5l-15.5 -38.5c-5 -12.667 -10.333 -25.334 -16 -38.001l-18.5 -41c10.667 -4 21.334 -6 32.001 -6c3.33301 0 8 1 14 3h2c0 0.666992 0.5 1.16699 1.5 1.5s3 0.666016 6 0.999023s8.5 0.5 16.5 0.5
c12.667 0 23.334 -4.5 32.001 -13.5s13 -20.167 13 -33.5c0 -10.667 -3.5 -19.5 -10.5 -26.5s-15.167 -12.667 -24.5 -17s-18.666 -7.5 -27.999 -9.5s-16.666 -3 -21.999 -3c-13.333 0 -25.666 1.66699 -36.999 5s-22.666 7.66602 -33.999 12.999l-6 -13.5l-6 -12.5h1
l-24.5 -51l-24.5 -50c-6.66699 -13.333 -12.667 -26.166 -18 -38.499l-17 -38.5l-16 -36.5c-5.33301 -12.333 -11 -24.5 -17 -36.5c38 -14 75.167 -26.167 111.5 -36.5s74.5 -15.5 114.5 -15.5c22 0 43 6.83301 63 20.5s36.667 31.167 50 52.5l-1 -3
c1.33301 3.33301 3 6.33301 5 9s3.66699 5.66699 5 9c2 4.66699 4 9 6 13s3.66699 6.66699 5 8v-1c5.33301 7.33301 10.5 13.333 15.5 18s12.833 7 23.5 7c12 0 22.667 -4.83301 32 -14.5s14 -20.834 14 -33.501z" />
    <glyph glyph-name="bracketleft" unicode="[" horiz-adv-x="312" 
d="M351 -72c0 -12.667 -4.66699 -23.332 -14 -31.999s-20 -13 -32 -13h-141c-12.667 0 -23.334 4.33301 -32.001 13s-13 19.334 -13 32.001v804c0 12.667 4.33301 23.334 13 32.001s19.334 13 32.001 13h141c12 0 22.667 -4.33301 32 -13s14 -19.334 14 -32.001
s-4.66699 -23.334 -14 -32.001s-20 -13 -32 -13h-95v-714h95c12 0 22.667 -4.33301 32 -13s14 -19.334 14 -32.001z" />
    <glyph glyph-name="backslash" unicode="\" horiz-adv-x="474" 
d="M374 12c-1.33301 4 -2 6.66797 -2 8.00098c1.33301 -2.66699 2 -5.33398 2 -8.00098zM375 8.00098c0 -12 -4.66699 -22.667 -14 -32s-20 -14 -32 -14c-24 0 -38.667 11.667 -44 35l1 -1l-89 371.5l-89 371.5c-2 4 -3 8.66699 -3 14c0 13.333 4.33301 24.333 13 33
s19.667 13 33 13c24 0 38.667 -11.667 44 -35l-1 1l88.5 -372.5l89.5 -372.5c-0.666992 1.33301 -1.66699 2.66602 -3 3.99902c-0.666992 0.666992 -1 1.33398 -1 2.00098z" />
    <glyph glyph-name="bracketright" unicode="]" horiz-adv-x="312" 
d="M194 -72c0 -12.667 -4.66699 -23.3359 -14 -32.0029s-20 -13 -32 -13h-141c-12.667 0 -23.334 4.33301 -32.001 13s-13 19.334 -13 32.001s4.33301 23.334 13 32.001s19.334 13 32.001 13h96v714h-96c-12.667 0 -23.334 4.33301 -32.001 13s-13 19.334 -13 32.001
s4.33301 23.334 13 32.001s19.334 13 32.001 13h141c12 0 22.667 -4.33301 32 -13s14 -19.334 14 -32.001v-804z" />
    <glyph glyph-name="asciicircum" unicode="^" horiz-adv-x="389" 
d="M395 469c0 -13.333 -4.66602 -23.834 -13.999 -31.501s-20 -11.5 -32 -11.5c-6 0 -12.667 2.16699 -20 6.5s-14.833 10 -22.5 17s-15.167 14.333 -22.5 22s-14 15.167 -20 22.5l-4 4l-24 -23.5c-8.66699 -8.33301 -17.334 -16.166 -26.001 -23.499
s-16.667 -13.333 -24 -18s-13 -7 -17 -7c-12.667 0 -23.334 3.83301 -32.001 11.5s-13 18.167 -13 31.5c0 11.333 4.16699 21.5 12.5 30.5s15.833 16.167 22.5 21.5l2 2c10.667 10 19.167 18.333 25.5 25l16.5 18c5.33301 7.33301 12.833 15.833 22.5 25.5
s21.167 14.5 34.5 14.5c8.66699 0 18.667 -3.66699 30 -11c3.33301 -3.33301 6.83301 -7.33301 10.5 -12s7.16699 -8.66699 10.5 -12v1l36.5 -40.5c11.667 -13 22.834 -24.167 33.501 -33.5c9.33301 -9.33301 14 -19 14 -29z" />
    <glyph glyph-name="underscore" unicode="_" horiz-adv-x="592" 
d="M592 -37c0 -12.667 -4.66504 -23.334 -13.998 -32.001s-20 -13 -32 -13h-515c-12.667 0 -23.334 4.33301 -32.001 13s-13 19.334 -13 32.001c0 11.333 4.16699 22 12.5 32s19.166 15 32.499 15h515c13.333 0 24.333 -5 33 -15s13 -20.667 13 -32z" />
    <glyph glyph-name="grave" unicode="`" horiz-adv-x="389" 
d="M333 467c0 -12.667 -4.66699 -23.1689 -14 -31.502s-20 -12.5 -32 -12.5c-4 0 -10.833 2.83301 -20.5 8.5s-20.334 12.834 -32.001 21.501s-23.834 18.334 -36.501 29.001s-24.167 21 -34.5 31s-18.833 19.333 -25.5 28s-10 15 -10 19c0 13.333 4.33301 23.833 13 31.5
s19.334 11.5 32.001 11.5c5.33301 0 10.5 -0.833008 15.5 -2.5s10.5 -5.16699 16.5 -10.5c3.33301 -3.33301 7 -6.66602 11 -9.99902s7.66699 -6.66602 11 -9.99902c8.66699 -8.66699 17.334 -16.834 26.001 -24.501s18 -14.834 28 -21.501h-2l5 -2.5l5 -2.5
c9.33301 -5.33301 19 -11.833 29 -19.5s15 -18.5 15 -32.5z" />
    <glyph glyph-name="a" unicode="a" horiz-adv-x="476" 
d="M518 137l-1 -2v-1c0 1.33301 0.333008 2.33301 1 3zM244 154c0 14 -2.66699 27.167 -8 39.5s-12.5 23.333 -21.5 33s-19.5 17.334 -31.5 23.001s-25 8.5 -39 8.5s-26.833 -2.83301 -38.5 -8.5s-22 -13.334 -31 -23.001s-16 -20.667 -21 -33s-7.5 -25.5 -7.5 -39.5
s2.5 -27.167 7.5 -39.5s12 -23.166 21 -32.499s19.333 -16.833 31 -22.5s24.5 -8.5 38.5 -8.5s27 2.83301 39 8.5s22.5 13.167 31.5 22.5s16.167 20.166 21.5 32.499s8 25.5 8 39.5zM522 155c0 -5.33301 -0.331055 -9.00488 -0.998047 -11.0049s-1.66699 -4.33301 -3 -7v1
c-4 -7.33301 -7 -13.666 -9 -18.999c-3.33301 -7.33301 -7 -14.666 -11 -21.999s-9 -15.333 -15 -24c-8.66699 -13.333 -18.334 -26.666 -29.001 -39.999s-22 -25.166 -34 -35.499s-24.5 -18.833 -37.5 -25.5s-26.167 -10 -39.5 -10c-38 0 -64.667 13.667 -80 41
c-16.667 -13.333 -35.167 -23.5 -55.5 -30.5s-41.5 -10.5 -63.5 -10.5c-26.667 0 -51.5 5 -74.5 15s-43 23.833 -60 41.5s-30.333 38.167 -40 61.5s-14.5 48 -14.5 74s4.83301 50.833 14.5 74.5s23 44.167 40 61.5s37 31.166 60 41.499s47.833 15.5 74.5 15.5
c36.667 0 70.667 -10.333 102 -31c2.66699 8 7.16699 14.667 13.5 20s16.166 8 29.499 8c12 0 22.667 -4.16699 32 -12.5s14 -18.833 14 -31.5v-225c0 -5.33301 0.5 -10.666 1.5 -15.999s3.16699 -8 6.5 -8c6.66699 0 14.167 4.33301 22.5 13s16.5 18.834 24.5 30.501
s15.333 23.5 22 35.5s11.667 21.667 15 29l-1 -1c4 8.66699 9.16699 17.667 15.5 27s17.5 14 33.5 14c11.333 0 22 -4.16699 32 -12.5s15 -18.833 15 -31.5z" />
    <glyph glyph-name="b" unicode="b" horiz-adv-x="346" 
d="M140 675c0 10.667 -0.829102 24.832 -2.49609 42.499s-4.33398 34.834 -8.00098 51.501s-8.66699 31 -15 43s-13.833 18 -22.5 18c-2 0 -4 -2.33301 -6 -7l-7 -16.5c-2.66699 -6.33301 -5 -13.166 -7 -20.499s-4 -14 -6 -20c-0.666992 -2.66699 -1.33398 -5 -2.00098 -7
s-1.33398 -3.66699 -2.00098 -5c-8.66699 -34 -15.334 -69.5 -20.001 -106.5s-7 -73.5 -7 -109.5c0 -24.667 -0.166992 -44.167 -0.5 -58.5s-0.5 -27.833 -0.5 -40.5c0 -12 0.333008 -25.167 1 -39.5s2 -33.833 4 -58.5l36 82c12 28.667 22.833 57.667 32.5 87
s17.5 58.166 23.5 86.499s9 54.5 9 78.5zM391.004 159.998c0 -2 -0.49707 -4.99512 -1.49707 -8.99512s-2.16699 -7.66699 -3.5 -11c-9.33301 -24.667 -25 -43.334 -47 -56.001s-45.667 -19.334 -71 -20.001c-14.667 -29.333 -34 -53.666 -58 -72.999s-54.333 -29 -91 -29
c-26 0 -48.333 4.83301 -67 14.5s-34.334 22.667 -47.001 39s-22.5 35.666 -29.5 57.999s-11.5 46.166 -13.5 71.499c-4.66699 64.667 -8.83398 129.667 -12.501 195s-5.5 131.333 -5.5 198c0 14.667 1 34.667 3 60s5.33301 52.333 10 81s10.834 57.667 18.501 87
s16.834 56 27.501 80s23.5 43.5 38.5 58.5s31.833 22.5 50.5 22.5c24.667 0 45.834 -9 63.501 -27s32 -40 43 -66s19 -53.5 24 -82.5s7.5 -54.5 7.5 -76.5c0 -41.333 -6 -84.833 -18 -130.5s-27 -91.5 -45 -137.5s-37.333 -90.5 -58 -133.5l-58 -117.5
c1.33301 -13.333 3.5 -26.166 6.5 -38.499s7.16699 -23.333 12.5 -33s12 -17.5 20 -23.5s17.667 -9 29 -9c14 0 26.167 4.5 36.5 13.5s19.166 19.5 26.499 31.5c-17.333 15.333 -29.833 34.166 -37.5 56.499s-11.5 44.166 -11.5 65.499c0 12.667 1.66699 25.667 5 39
s8.5 25.5 15.5 36.5s16.167 20 27.5 27s25 10.5 41 10.5c15.333 0 28.166 -3.5 38.499 -10.5s18.666 -15.833 24.999 -26.5s10.833 -22.334 13.5 -35.001s4 -24.667 4 -36c0 -9.33301 -0.333008 -18.833 -1 -28.5s-1.66699 -19.167 -3 -28.5
c1.33301 1.33301 2.66602 3.33301 3.99902 6v-1c5.33301 10.667 10.666 18.667 15.999 24s14.333 8 27 8s23.334 -4.16699 32.001 -12.5s13 -18.833 13 -31.5z" />
    <glyph glyph-name="c" unicode="c" horiz-adv-x="329" 
d="M375 155c0 -3.33301 -0.166016 -6.5 -0.499023 -9.5s-2.16602 -6.16699 -5.49902 -9.5c-10 -23.333 -22.333 -45.5 -37 -66.5s-31.334 -39.5 -50.001 -55.5s-39.667 -28.667 -63 -38s-48.333 -14 -75 -14s-51.5 5 -74.5 15s-43 23.833 -60 41.5s-30.333 38.167 -40 61.5
s-14.5 48 -14.5 74s4.83301 50.833 14.5 74.5s23 44.167 40 61.5s37 31.166 60 41.499s47.833 15.5 74.5 15.5c6 0 15.833 -1.66699 29.5 -5s27.5 -8 41.5 -14s26.167 -13.167 36.5 -21.5s15.5 -17.166 15.5 -26.499c0 -12.667 -4.66699 -23.167 -14 -31.5
s-20 -12.5 -32 -12.5c-7.33301 0 -17 3 -29 9l1 -1c-6 2.66699 -13.333 5.66699 -22 9s-17.667 5 -27 5c-14 0 -26.833 -2.83301 -38.5 -8.5s-22 -13.167 -31 -22.5s-16 -20.333 -21 -33s-7.5 -26 -7.5 -40s2.5 -27.167 7.5 -39.5s12 -23.166 21 -32.499
s19.333 -16.833 31 -22.5s24.5 -8.5 38.5 -8.5c28 0 51.5 7.66699 70.5 23s35.833 35.333 50.5 60v-1l12 21.5c4 7 8.33301 14.167 13 21.5l-1 -1c4 7.33301 8.66699 13.333 14 18s13.666 7 24.999 7s22 -4.33301 32 -13s15 -19.334 15 -32.001z" />
    <glyph glyph-name="d" unicode="d" horiz-adv-x="478" 
d="M244 158c0 14 -2.5 27.167 -7.5 39.5s-12 23.166 -21 32.499s-19.667 16.666 -32 21.999s-25.5 8 -39.5 8s-27 -2.66699 -39 -8s-22.333 -12.666 -31 -21.999s-15.5 -20.166 -20.5 -32.499s-7.5 -25.5 -7.5 -39.5s2.5 -27.333 7.5 -40s11.833 -23.834 20.5 -33.501
s19 -17.5 31 -23.5s25 -9 39 -9s27.167 3 39.5 9s23 13.833 32 23.5s16 20.834 21 33.501s7.5 26 7.5 40zM523 159c0 -3.33301 -0.168945 -6.50195 -0.501953 -9.50195s-1.5 -6.5 -3.5 -10.5c-8.66699 -17.333 -21.167 -39 -37.5 -65s-34.166 -48.667 -53.499 -68
c-13.333 -13.333 -26 -24 -38 -32s-27.667 -12 -47 -12c-18.667 0 -34.5 4.16699 -47.5 12.5s-23.167 19.166 -30.5 32.499c-32.667 -30 -73 -45 -121 -45c-26.667 0 -51.5 5.33301 -74.5 16s-43 25 -60 43s-30.333 38.833 -40 62.5s-14.5 48.5 -14.5 74.5
s4.83301 50.667 14.5 74s23 43.833 40 61.5s37 31.5 60 41.5s47.833 15 74.5 15c17.333 0 34.666 -2.5 51.999 -7.5s33.333 -11.833 48 -20.5c0 44 0.166992 86.833 0.5 128.5s0.5 84.5 0.5 128.5c0 12.667 4.33301 23.334 13 32.001s19.334 13 32.001 13
c12 0 22.667 -4.33301 32 -13s14 -19.334 14 -32.001l-2 -470v-16c0 -6 0.333008 -12.167 1 -18.5s1.66699 -11.666 3 -15.999s3 -6.5 5 -6.5c5.33301 0 9.66602 1.5 12.999 4.5s7.66602 7.16699 12.999 12.5c0 0.666992 0.333008 1.33398 1 2.00098
c12 14.667 23.833 31.5 35.5 50.5s20.5 34.167 26.5 45.5l-1 -1c0 0.666992 0.333008 1.33398 1 2.00098c4.66699 8 9.83398 15.833 15.501 23.5s15.834 11.5 30.501 11.5c12.667 0 23.334 -4.16699 32.001 -12.5s13 -18.833 13 -31.5z" />
    <glyph glyph-name="e" unicode="e" horiz-adv-x="360" 
d="M213 225c0 4.66699 -2.33301 9.16602 -7 13.499s-10.5 7.83301 -17.5 10.5s-14.333 4.83398 -22 6.50098s-14.167 2.5 -19.5 2.5c-21.333 0 -40.5 -5.66699 -57.5 -17s-29.5 -26.333 -37.5 -45c14.667 -7.33301 28.5 -12.333 41.5 -15s28.167 -4 45.5 -4
c8 0 16.333 1 25 3s16.667 5 24 9s13.333 9 18 15s7 13 7 21zM407 154.999c0 -3.33301 -0.164062 -6.3291 -0.49707 -8.99609s-1.83301 -5.66699 -4.5 -9c-24.667 -54 -58.834 -96.667 -102.501 -128s-95.5 -47 -155.5 -47c-26 0 -50.5 5.16699 -73.5 15.5
s-43 24.333 -60 42s-30.5 38 -40.5 61s-15 47.5 -15 73.5c0 27.333 4.83301 52.666 14.5 75.999s23 43.666 40 60.999s37.333 31 61 41s49.167 15 76.5 15c16 0 33.167 -2.66699 51.5 -8s35.333 -13.333 51 -24s28.667 -23.5 39 -38.5s15.5 -32.167 15.5 -51.5
c0 -22.667 -4.83301 -42.5 -14.5 -59.5s-22.334 -31.333 -38.001 -43s-33.334 -20.5 -53.001 -26.5s-39.5 -9 -59.5 -9c-13.333 0 -26.333 0.833008 -39 2.5s-24.667 4.16699 -36 7.5c9.33301 -14 20.666 -25.167 33.999 -33.5s28.666 -12.5 45.999 -12.5
c32 0 61.167 6.5 87.5 19.5s48.166 33.5 65.499 61.5l2.5 5c1 2 2.16699 4.66699 3.5 8c2.66699 5.33301 5.83398 11.166 9.50098 17.499s7.83398 12.166 12.501 17.499s9.83398 9.83301 15.501 13.5s12.167 5.5 19.5 5.5c11.333 0 22 -4.16699 32 -12.5
s15 -18.833 15 -31.5z" />
    <glyph glyph-name="f" unicode="f" horiz-adv-x="235" 
d="M143 667c0 12 -1.16895 26.999 -3.50195 44.999s-5.66602 35.5 -9.99902 52.5s-10.166 31.667 -17.499 44s-16 18.5 -26 18.5c-6.66699 0 -12.167 -6.5 -16.5 -19.5s-8 -29.667 -11 -50s-5.16699 -43 -6.5 -68s-2.5 -49 -3.5 -72s-1.5 -44.167 -1.5 -63.5v-41v-164
c12 25.333 23.667 51.5 35 78.5s21.5 54.167 30.5 81.5s16.333 54.333 22 81s8.5 52.334 8.5 77.001zM147.998 -367.001c0 36 -4.66504 74.168 -13.998 114.501s-21 80.833 -35 121.5c-8.66699 24.667 -17.667 48.5 -27 71.5s-19.666 44.167 -30.999 63.5
c0 -3.33301 -0.166992 -7 -0.5 -11s-0.5 -7.66699 -0.5 -11c-0.666992 -25.333 -1.33398 -52.5 -2.00098 -81.5s-1 -56.5 -1 -82.5c0 -12.667 0.166992 -29.667 0.5 -51s1.16602 -44.333 2.49902 -69s3.16602 -49.834 5.49902 -75.501s6 -49 11 -70s11.167 -38 18.5 -51
s16.333 -19.5 27 -19.5c10 0 18.167 5.5 24.5 16.5s11 24.333 14 40s5 32.167 6 49.5s1.5 32.333 1.5 45zM281 154l-0.00390625 -5.99805c0 -2.66699 -0.666992 -5.33398 -2 -8.00098v-1c-6 -14 -13.5 -28.167 -22.5 -42.5s-19.167 -27.5 -30.5 -39.5s-24 -22.333 -38 -31
s-29 -14.667 -45 -18c13.333 -26.667 25 -53.667 35 -81s19.333 -55 28 -83c11.333 -34.667 20 -70 26 -106s9 -71 9 -105c0 -26.667 -2.16699 -55 -6.5 -85s-11.666 -57.667 -21.999 -83s-24.5 -46.333 -42.5 -63s-40.667 -25 -68 -25c-24.667 0 -45.667 8.5 -63 25.5
s-31.666 39 -42.999 66s-20.5 57.5 -27.5 91.5s-12.167 68 -15.5 102s-5.5 66.333 -6.5 97s-1.5 56.334 -1.5 77.001c0 36.667 0.5 73.334 1.5 110.001s2.83301 73 5.5 109v21c0 7.33301 0.333008 14.666 1 21.999s1.16699 14.5 1.5 21.5s0.5 14.167 0.5 21.5v372
c0 14 0.5 34 1.5 60s3 54.167 6 84.5s7.33301 61.333 13 93s13.334 60.5 23.001 86.5s21.667 47.167 36 63.5s31.5 24.5 51.5 24.5c26 0 48.5 -9.16699 67.5 -27.5s34.5 -40.833 46.5 -67.5s20.833 -54.834 26.5 -84.501s8.5 -55.834 8.5 -78.501
c0 -39.333 -5 -79.5 -15 -120.5s-22.667 -81.667 -38 -122s-32.333 -80 -51 -119l-55 -110.5c-4 -8.66699 -8.33301 -17.334 -13 -26.001s-9 -17.667 -13 -27c10 -11.333 21 -21.666 33 -30.999s24 -14 36 -14c14.667 0 26.5 6.16699 35.5 18.5s17.833 25.5 26.5 39.5v-1
l6.5 10.5l6.5 10.5c10.667 16.667 24.334 25 41.001 25c12 0 22.667 -4.66699 32 -14s14 -20 14 -32z" />
    <glyph glyph-name="g" unicode="g" horiz-adv-x="464" 
d="M244 -152c-20.667 -30 -39.166 -63.002 -55.499 -99.002s-24.5 -73 -24.5 -111c0 -14.667 0.333008 -31.167 1 -49.5s2.33398 -35.666 5.00098 -51.999s6.66699 -30.166 12 -41.499s13 -17 23 -17c9.33301 0 16.666 7.5 21.999 22.5s9.16602 33 11.499 54
s3.83301 42.333 4.5 64s1 39.5 1 53.5v176zM244.001 149.998c0 14 -2.5 27.5 -7.5 40.5s-12 24.333 -21 34s-19.667 17.5 -32 23.5s-25.5 9 -39.5 9s-27 -3 -39 -9s-22.333 -13.833 -31 -23.5s-15.5 -21 -20.5 -34s-7.5 -26.5 -7.5 -40.5s2.5 -27.333 7.5 -40
s11.833 -23.834 20.5 -33.501s19 -17.5 31 -23.5s25 -9 39 -9s27.167 3 39.5 9s23 13.833 32 23.5s16 20.834 21 33.501s7.5 26 7.5 40zM510.001 150.998c0 -3.33301 -0.501953 -7.33301 -1.50195 -12s-2.83301 -8.66699 -5.5 -12c-20.667 -34.667 -48 -66.667 -82 -96h1
l-16 -13.5l-16 -12.5v1l-27.5 -22.5c-9 -7.66699 -18.167 -16.167 -27.5 -25.5v-286c0 -18 -0.666992 -37.833 -2 -59.5s-3.83301 -43.667 -7.5 -66s-8.5 -44.166 -14.5 -65.499s-13.833 -40.166 -23.5 -56.499s-21.334 -29.5 -35.001 -39.5s-29.5 -15 -47.5 -15
c-28 0 -50.667 8.66699 -68 26s-30.666 39.166 -39.999 65.499s-15.666 55.166 -18.999 86.499s-5 61.333 -5 90c0 31.333 3.83301 62 11.5 92s17.834 58.833 30.501 86.5s27 54 43 79s32.333 48.167 49 69.5c-20.667 -7.33301 -41.667 -11 -63 -11
c-26.667 0 -51.5 5.33301 -74.5 16s-43 25 -60 43s-30.333 38.833 -40 62.5s-14.5 48.5 -14.5 74.5s4.83301 51 14.5 75s23 45 40 63s37 32.333 60 43s47.833 16 74.5 16c18.667 0 36.667 -2.83301 54 -8.5s33.666 -13.5 48.999 -23.5c2.66699 8 7 14.667 13 20
s15.667 8 29 8c12 0 22.667 -4.16699 32 -12.5s14 -19.166 14 -32.499v-221c12.667 9.33301 25.334 20.166 38.001 32.499s23.667 24.5 33 36.5c1.33301 2.66699 2.83301 4.83398 4.5 6.50098s3.16699 3.83398 4.5 6.50098s2.83301 5.16699 4.5 7.5s3.5 5.16602 5.5 8.49902
c10 14 22.667 21 38 21c11.333 0 22 -4.33301 32 -13s15 -19.334 15 -32.001z" />
    <glyph glyph-name="h" unicode="h" horiz-adv-x="388" 
d="M164 665c0 12.667 -0.834961 26.1689 -2.50195 40.502s-4.5 28.333 -8.5 42s-9.16699 26.5 -15.5 38.5s-14.166 21.667 -23.499 29c-5.33301 5.33301 -9.66602 8 -12.999 8s-6.66602 -3.5 -9.99902 -10.5s-6.5 -15.333 -9.5 -25s-5.66699 -19.5 -8 -29.5l-5.5 -24
c-13.333 -52 -21 -105.167 -23 -159.5s-3 -109.833 -3 -166.5c0 -16 -0.166992 -26.5 -0.5 -31.5s-0.5 -9.16699 -0.5 -12.5v-13c0 -4.66699 0.333008 -15 1 -31c1.33301 3.33301 3.66602 7 6.99902 11c10.667 17.333 20.667 35.166 30 53.499s18.333 37.166 27 56.499
c15.333 36 28.833 73 40.5 111s17.5 75.667 17.5 113zM431.998 150.002c-6 -16 -14.8359 -34.6719 -26.5029 -56.0049s-25.334 -41.666 -41.001 -60.999s-33 -35.833 -52 -49.5s-38.5 -20.5 -58.5 -20.5c-22 0 -39.167 5 -51.5 15s-21.833 22.5 -28.5 37.5
s-10.834 31.167 -12.501 48.5s-2.5 33.333 -2.5 48v106c0 10 -2.66699 19.5 -8 28.5s-13.666 13.5 -24.999 13.5c-4 0 -8.5 -2.83301 -13.5 -8.5s-10.167 -12.667 -15.5 -21s-10.833 -17.666 -16.5 -27.999s-10.834 -20.166 -15.501 -29.499v1l-11.5 -23.5
c-3 -6.33301 -6.16699 -11.833 -9.5 -16.5v-9c0 -2 0.333008 -4.66699 1 -8c1.33301 -17.333 2.5 -35.166 3.5 -53.499s1.5 -36.833 1.5 -55.5c0 -13.333 -4.33301 -24.333 -13 -33s-19.667 -13 -33 -13c-11.333 0 -20 1.83301 -26 5.5s-10.5 8.5 -13.5 14.5
s-4.83301 12.5 -5.5 19.5s-1 13.833 -1 20.5c0 15.333 -0.5 31 -1.5 47s-2.16699 32 -3.5 48c-2.66699 44 -4.16699 90.667 -4.5 140s-0.5 101 -0.5 155c0 58.667 1.33301 116.834 4 174.501s11.334 115.834 26.001 174.501c4 14 9.16699 30.167 15.5 48.5s14.333 36 24 53
s21.334 31.333 35.001 43s29.834 17.5 48.501 17.5c28 0 51.833 -9 71.5 -27s35.667 -40.167 48 -66.5s21.5 -54.333 27.5 -84s9 -56.5 9 -80.5c0 -28.667 -2.83301 -58.167 -8.5 -88.5s-13.167 -58.5 -22.5 -84.5c-7.33301 -22.667 -16 -45.167 -26 -67.5
s-23 -48.5 -39 -78.5c28 -7.33301 49.833 -23.166 65.5 -47.499s23.5 -51.166 23.5 -80.499v-128c0 -8 0.333008 -16.167 1 -24.5s1.66699 -12.5 3 -12.5c6 0 12.5 3.16699 19.5 9.5s14 14.166 21 23.499s13.667 19.5 20 30.5s11.833 21.167 16.5 30.5
c3.33301 6 6.33301 12 9 18s5.33398 11 8.00098 15c4.66699 7.33301 10.334 13.166 17.001 17.499s14 6.5 22 6.5c11.333 0 22 -4.33301 32 -13s15 -19.334 15 -32.001z" />
    <glyph glyph-name="i" unicode="i" horiz-adv-x="253" 
d="M110 425c0 -15.333 -5.66699 -28.5 -17 -39.5s-24.666 -16.5 -39.999 -16.5c-16 0 -29 5.5 -39 16.5s-15 24.167 -15 39.5s5 28.5 15 39.5s23 16.5 39 16.5c15.333 0 28.666 -5.5 39.999 -16.5s17 -24.167 17 -39.5zM299 155c0 -7.33301 -2.82812 -15.833 -8.49512 -25.5
l-16.5 -28.5c-2.66699 -3.33301 -4.5 -6 -5.5 -8l-2.5 -5l-4 -8l-9.5 -14.5c-3.66699 -5.66699 -4.83398 -7.83398 -3.50098 -6.50098c-8 -12 -17 -23.833 -27 -35.5s-21.167 -22 -33.5 -31s-25.5 -16.333 -39.5 -22s-29 -8.5 -45 -8.5c-22 0 -39.5 5 -52.5 15
s-23 22.5 -30 37.5s-11.5 31 -13.5 48s-3 32.5 -3 46.5h-5c-12.667 0 -23.334 4.33301 -32.001 13s-13 19.334 -13 32.001c0 8 2 16.167 6 24.5l11 23.5l4 8c4.66699 9.33301 8.16699 18.5 10.5 27.5s4.83301 18.167 7.5 27.5c1.33301 3.33301 2.16602 6.83301 2.49902 10.5
s1.16602 7.16699 2.49902 10.5v-3c0.666992 5.33301 2 11.666 4 18.999s5 14.166 9 20.499s9 11.833 15 16.5s14 7 24 7c16.667 0 28.334 -5.66699 35.001 -17s10 -21.333 10 -30v-212c0 -7.33301 0.5 -15.166 1.5 -23.499s3.16699 -12.5 6.5 -12.5
c13.333 0 25.833 5.66699 37.5 17s22.167 24.666 31.5 39.999c1.33301 1.33301 2.66602 3.5 3.99902 6.5s2.33301 5.16699 3 6.5l13 20c4 6 7.66699 12.333 11 19l2 2c0.666992 0.666992 1 1.33398 1 2.00098s0.333008 1.33398 1 2.00098l-1 -3c4 8 9.16699 16 15.5 24
s16.166 12 29.499 12c9.33301 0 19.5 -3.5 30.5 -10.5s16.5 -18.167 16.5 -33.5z" />
    <glyph glyph-name="j" unicode="j" horiz-adv-x="237" 
d="M110 425c0 -15.333 -5.66699 -28.5 -17 -39.5s-24.666 -16.5 -39.999 -16.5c-16 0 -29 5.5 -39 16.5s-15 24.167 -15 39.5s5 28.5 15 39.5s23 16.5 39 16.5c15.333 0 28.666 -5.5 39.999 -16.5s17 -24.167 17 -39.5zM5 -161
c-11.333 -13.333 -22.167 -27.335 -32.5 -42.002s-19.5 -30.167 -27.5 -46.5s-14.5 -33.666 -19.5 -51.999s-7.5 -37.833 -7.5 -58.5c0 -13.333 0.833008 -28.833 2.5 -46.5s4.5 -34.667 8.5 -51s9.16699 -30.166 15.5 -41.499s13.833 -17 22.5 -17
c8 0 14.333 8.33301 19 25s8.5 36 11.5 58s5 44.333 6 67s1.5 40 1.5 52v153zM282.999 151.998c0 -3.33301 -0.669922 -7.33398 -2.00293 -12.001s-3.66602 -9.33398 -6.99902 -14.001l1 2c-20.667 -34 -46.5 -66 -77.5 -96s-62.167 -58.667 -93.5 -86l-4 -3
c0.666992 0 -0.666016 -1.33301 -3.99902 -4v-253c0 -16 -0.833008 -34.833 -2.5 -56.5s-4.66699 -44 -9 -67s-9.66602 -45.667 -15.999 -68s-14.333 -42.333 -24 -60s-20.834 -32 -33.501 -43s-27.334 -16.5 -44.001 -16.5c-24 0 -45 8.66699 -63 26
s-32.667 39.166 -44 65.499s-19.833 55 -25.5 86s-8.5 60.167 -8.5 87.5c0 38 5.33301 73.333 16 106s24.334 62.834 41.001 90.501s35 53.167 55 76.5l58 66l4 5c0.666992 0 2.33398 1.66699 5.00098 5v118h-5c-12.667 0 -23.334 4.33301 -32.001 13s-13 19.334 -13 32.001
v8c0 2.66699 0.666992 5.33398 2 8.00098c0.666992 2 1.33398 4.16699 2.00098 6.5s1.33398 4.16602 2.00098 5.49902l16.5 40.5c5.66699 13.667 11.167 27.834 16.5 42.501c0.666992 2.66699 1.33398 5 2.00098 7s1.33398 5 2.00098 9c1.33301 5.33301 2.5 10.833 3.5 16.5
s3.16699 12.167 6.5 19.5l-1 -2c3.33301 12 8.66602 20.667 15.999 26s16.666 8 27.999 8c13.333 0 24.166 -5 32.499 -15s12.5 -20.667 12.5 -32v-242c13.333 12 26.833 25.333 40.5 40s26.167 29.334 37.5 44.001l5.5 7.5l5.5 7.5
c2.66699 3.33301 5.16699 6.83301 7.5 10.5s4.83301 7.16699 7.5 10.5c10 12.667 22.333 19 37 19c12 0 22.667 -4.33301 32 -13s14 -19.334 14 -32.001z" />
    <glyph glyph-name="k" unicode="k" horiz-adv-x="390" 
d="M126 258c-4 0 -8.16699 -2 -12.5 -6s-8.83301 -9 -13.5 -15c3.33301 0.666992 6.5 1.16699 9.5 1.5s6.16699 0.5 9.5 0.5c7.33301 0 14.666 -0.5 21.999 -1.5s14.333 -2.83301 21 -5.5v1c0 8.66699 -3.66699 15 -11 19s-15.666 6 -24.999 6zM154 662
c0 10.667 -1.16602 25.335 -3.49902 44.002s-5.83301 37.167 -10.5 55.5s-10.834 34.166 -18.501 47.499s-16.5 20 -26.5 20c-3.33301 0 -6.5 -3.33301 -9.5 -10s-6 -14.667 -9 -24s-5.66699 -18.666 -8 -27.999s-4.16602 -17 -5.49902 -23
c-9.33301 -36.667 -16 -73.834 -20 -111.501s-6 -76.167 -6 -115.5v-58v-39c0 -12 0.166992 -25 0.5 -39s1.16602 -33 2.49902 -57c0.666992 0.666992 1 1.33398 1 2.00098c0 1.33301 0.333008 2.33301 1 3c18.667 36 37 75.667 55 119v-1
c16 39.333 29.5 77.666 40.5 114.999s16.5 70.666 16.5 99.999zM436.001 158.001c0 -3.33301 -0.49707 -7.32617 -1.49707 -11.9932s-2.83301 -8.66699 -5.5 -12l1 3c-8 -16 -17.667 -34.167 -29 -54.5s-24.333 -39.5 -39 -57.5s-31.334 -33 -50.001 -45
s-39.334 -18 -62.001 -18c-20 0 -36.167 5.16699 -48.5 15.5s-21.666 23.166 -27.999 38.499s-10.666 31.5 -12.999 48.5s-3.5 32.167 -3.5 45.5c-14.667 -3.33301 -28.334 -5 -41.001 -5c-14 0 -27.333 2.33301 -40 7s-22.667 12.667 -30 24
c-1.33301 -1.33301 -2 -2.33301 -2 -3c1.33301 -20.667 2 -41.667 2 -63v-63c0 -13.333 -4.66699 -24.166 -14 -32.499s-20 -12.5 -32 -12.5c-12.667 0 -23.334 4.16699 -32.001 12.5s-13 19.166 -13 32.499c0 36.667 -0.666992 73.834 -2 111.501l-4 116.5l-4 137
c-1.33301 46.667 -2 95 -2 145c0 15.333 1 36.166 3 62.499s5.33301 54.666 10 84.999s10.667 61.166 18 92.499s16.666 59.666 27.999 84.999s24.666 46 39.999 62s33 24 53 24c26 0 48.5 -9.66699 67.5 -29s34.833 -43 47.5 -71s22.167 -57.167 28.5 -87.5
s9.5 -56.5 9.5 -78.5c0 -25.333 -3.16699 -53 -9.5 -83s-15.166 -60.333 -26.499 -91c-8 -23.333 -16.667 -46.333 -26 -69s-20.666 -47 -33.999 -73c28.667 -4.66699 52.667 -16.667 72 -36s29 -45 29 -77c0 -24 -6 -45.333 -18 -64c6 -11.333 9.5 -22 10.5 -32
s1.5 -21.667 1.5 -35v-14c0 -5.33301 0.166992 -10.666 0.5 -15.999s0.666016 -10 0.999023 -14s0.833008 -6 1.5 -6c8 0 16 3.5 24 10.5s15.667 15.5 23 25.5s14 20.667 20 32l16 30c1.33301 1.33301 1.83301 2.16602 1.5 2.49902s0.166992 1.16602 1.5 2.49902v-1
c2.66699 3.33301 5 6.66602 7 9.99902s3.66699 7 5 11c11.333 18.667 25 28 41 28c11.333 0 22 -4.33301 32 -13s15 -19.334 15 -32.001z" />
    <glyph glyph-name="l" unicode="l" horiz-adv-x="265" 
d="M152 667c0 24 -2.33203 46.332 -6.99902 66.999c-2 9.33301 -4.66699 19.5 -8 30.5s-7.33301 21.167 -12 30.5s-9.83398 17.166 -15.501 23.499s-11.5 9.5 -17.5 9.5c-2 0 -4.33301 -2.5 -7 -7.5s-5.16699 -11 -7.5 -18s-4.66602 -14.667 -6.99902 -23
s-4.5 -15.5 -6.5 -21.5v1c-0.666992 -2 -1.16699 -4.33301 -1.5 -7s-0.833008 -4.66699 -1.5 -6v1c-9.33301 -32 -15.833 -64.167 -19.5 -96.5s-5.5 -65.166 -5.5 -98.499c0 -35.333 0.833008 -72.666 2.5 -111.999s3.16699 -77 4.5 -113c13.333 28 26.5 57.5 39.5 88.5
s24.667 61.5 35 91.5s18.666 58.833 24.999 86.5s9.5 52.167 9.5 73.5zM310.001 158.999c0 -4.66699 -0.334961 -8.33301 -1.00195 -11s-1.33398 -5 -2.00098 -7c-5.33301 -11.333 -11.833 -23.5 -19.5 -36.5s-17.167 -27.167 -28.5 -42.5c-9.33301 -12.667 -19 -25 -29 -37
s-20.667 -22.667 -32 -32s-23.833 -16.833 -37.5 -22.5s-28.5 -8.5 -44.5 -8.5c-28.667 0 -53 6.33301 -73 19s-36.333 28.667 -49 48s-22.167 40.833 -28.5 64.5s-9.83301 46.167 -10.5 67.5c0.666992 5.33301 1 11 1 17v19c0 21.333 -0.666992 45.166 -2 71.499
s-2.66602 54.5 -3.99902 84.5c-1.33301 33.333 -2.83301 66.833 -4.5 100.5s-2.5 65.5 -2.5 95.5c0 14 1 33.167 3 57.5s5.16699 50.333 9.5 78s10.333 55.834 18 84.501s17 54.667 28 78s24 42.333 39 57s32.167 22 51.5 22s36.5 -4.5 51.5 -13.5s28.167 -20.667 39.5 -35
s20.833 -30.833 28.5 -49.5s14 -37.5 19 -56.5s8.66699 -37.667 11 -56s3.5 -34.5 3.5 -48.5c0 -32 -4.83301 -67.333 -14.5 -106s-21.667 -77.5 -36 -116.5s-29.833 -76.667 -46.5 -113l-45 -94.5c-0.666992 -1.33301 -1.16699 -2.5 -1.5 -3.5
s-0.833008 -2.16699 -1.5 -3.5l-24 -46.5c-8 -15 -17.667 -28.833 -29 -41.5c2 -10.667 4.83301 -21.334 8.5 -32.001s8.33398 -20.334 14.001 -29.001s12.334 -15.667 20.001 -21s16.5 -8 26.5 -8c8 0 15.5 2.33301 22.5 7s13.833 10.667 20.5 18s13 15.333 19 24
s11.667 17.334 17 26.001c1.33301 2 2.33301 3.66699 3 5s1.66699 3 3 5c10 18.667 19.5 34.5 28.5 47.5s20.5 19.5 34.5 19.5c12 0 22.667 -4.16699 32 -12.5s14 -19.166 14 -32.499z" />
    <glyph glyph-name="m" unicode="m" horiz-adv-x="684" 
d="M731 155c0 -3.33301 -0.163086 -6.50293 -0.496094 -9.50293s-2.16602 -6.16699 -5.49902 -9.5c-5.33301 -12 -12.833 -25.833 -22.5 -41.5s-20.167 -31.167 -31.5 -46.5c-17.333 -22.667 -35.833 -42.667 -55.5 -60s-39.167 -26 -58.5 -26
c-23.333 0 -42.5 4.16699 -57.5 12.5s-26.833 19.5 -35.5 33.5s-14.667 30 -18 48s-5 36.333 -5 55v114c0 11.333 -4.16699 19.333 -12.5 24s-18.166 7 -29.499 7s-20.666 -5 -27.999 -15s-11 -20.667 -11 -32v-202c0 -12.667 -4.66699 -23.334 -14 -32.001s-20 -13 -32 -13
c-12.667 0 -23.334 4.33301 -32.001 13s-13 19.334 -13 32.001v202c0 14.667 -2.5 26.167 -7.5 34.5s-14.833 12.5 -29.5 12.5c-9.33301 0 -19.333 -2.83301 -30 -8.5s-16 -13.167 -16 -22.5v-218c0 -12.667 -4.66699 -23.334 -14 -32.001s-20 -13 -32 -13
c-12.667 0 -23.334 4.33301 -32.001 13s-13 19.334 -13 32.001v221v17c0 7.33301 0.333008 11 1 11c-4 0 -8.83301 -6.83301 -14.5 -20.5s-11.167 -28.167 -16.5 -43.5l-12 -30c-4 -10 -8.5 -19 -13.5 -27s-10.833 -14.333 -17.5 -19s-14 -7 -22 -7
c-12.667 0 -23.334 4.33301 -32.001 13s-13 19.334 -13 32.001c0 6 1.33301 12 4 18l9 21l3 6h-1c4 8.66699 7.66699 17.5 11 26.5l9 23.5c1.33301 3.33301 2.33301 6 3 8l2 6c4 10 9.16699 19.833 15.5 29.5s13.833 18.5 22.5 26.5s18.334 14.333 29.001 19s22 7 34 7
c24.667 0 44.334 -7 59.001 -21c11.333 6.66699 23.666 11.834 36.999 15.501s26.666 5.5 39.999 5.5c16.667 0 32.334 -2.16699 47.001 -6.5s28 -11.833 40 -22.5c23.333 19.333 50 29 80 29c17.333 0 34.166 -2.66699 50.499 -8s30.666 -13.166 42.999 -23.499
s22.166 -23 29.499 -38s11 -31.833 11 -50.5v-114c0 -6 0.166992 -12.5 0.5 -19.5s1.16602 -13.5 2.49902 -19.5s3.66602 -11 6.99902 -15s8 -6 14 -6c4.66699 0 11.167 4.83301 19.5 14.5s16.833 21.167 25.5 34.5s17 27 25 41s14 25.333 18 34c9.33301 16 22.333 24 39 24
c11.333 0 22 -4.16699 32 -12.5s15 -18.833 15 -31.5z" />
    <glyph glyph-name="n" unicode="n" horiz-adv-x="506" 
d="M551 155c0 -3.33301 -1.34082 -8.99707 -4.00781 -16.9971s-5.33398 -13.667 -8.00098 -17c-6 -11.333 -14.833 -25.833 -26.5 -43.5s-24.834 -35.167 -39.501 -52.5s-30.167 -32.166 -46.5 -44.499s-32.166 -18.5 -47.499 -18.5c-23.333 0 -42.5 4.16699 -57.5 12.5
s-27 19.5 -36 33.5s-15.167 30 -18.5 48s-5 36.333 -5 55v114c0 11.333 -4 19.666 -12 24.999s-17.667 8 -29 8s-20.833 -5.16699 -28.5 -15.5s-11.5 -21.5 -11.5 -33.5v-202c0 -12.667 -4.33301 -23.334 -13 -32.001s-19.334 -13 -32.001 -13c-12 0 -22.667 4.33301 -32 13
s-14 19.334 -14 32.001v221v16c0 8 0.333008 12.667 1 14c-5.33301 -0.666992 -10.166 -6.83398 -14.499 -18.501s-8.16602 -22.834 -11.499 -33.501v1l-3.5 -12.5c-1 -3.66699 -2.16699 -7.16699 -3.5 -10.5c-0.666992 -1.33301 -1.33398 -3 -2.00098 -5
s-1.66699 -5.33301 -3 -10c-2 -6.66699 -4.66699 -13.834 -8 -21.501s-7.16602 -14.667 -11.499 -21s-9.66602 -11.5 -15.999 -15.5s-13.5 -6 -21.5 -6c-12 0 -22.667 4.33301 -32 13s-14 19.334 -14 32.001c0 2 1 6.16699 3 12.5s4.33301 13 7 20l8 20
c2.66699 6.33301 5 11.166 7 14.499c1.33301 3.33301 2.16602 6.5 2.49902 9.5s1.16602 6.5 2.49902 10.5l5 13l5 13c4 10 9.16699 20 15.5 30s13.833 19 22.5 27s18.334 14.5 29.001 19.5s22.334 7.5 35.001 7.5c23.333 0 42 -7.66699 56 -23
c10.667 7.33301 22.334 13 35.001 17s25.334 6 38.001 6c17.333 0 34 -2.66699 50 -8s30 -13.333 42 -24s21.667 -23.5 29 -38.5s11 -32.167 11 -51.5v-114c0 -6 0.166992 -12.5 0.5 -19.5s1.5 -13.5 3.5 -19.5s4.66699 -11 8 -15s8 -6 14 -6c4 0 9.83301 4.66699 17.5 14
s15.334 20 23.001 32s14.834 24.167 21.501 36.5l15 27.5c0.666992 1.33301 1.33398 2.33301 2.00098 3s1.33398 1.66699 2.00098 3c5.33301 8.66699 11 16.167 17 22.5s15.667 9.5 29 9.5c12.667 0 23.334 -4.16699 32.001 -12.5s13 -18.833 13 -31.5z" />
    <glyph glyph-name="o" unicode="o" horiz-adv-x="400" 
d="M144 51c17.333 0 33.501 4.33301 48.501 13s27.167 20.667 36.5 36c-12.667 12 -22.834 25.667 -30.501 41s-11.5 32 -11.5 50s4 34.667 12 50c-16.667 11.333 -35 17 -55 17c-14 0 -26.833 -2.83301 -38.5 -8.5s-22 -13.334 -31 -23.001s-16 -20.667 -21 -33
s-7.5 -25.5 -7.5 -39.5s2.5 -27.167 7.5 -39.5s12 -23.166 21 -32.499s19.333 -16.833 31 -22.5s24.5 -8.5 38.5 -8.5zM446.001 155v-5.99805c0 -2.66699 -0.666992 -5.33398 -2 -8.00098v-2c-11.333 -23.333 -27.833 -42 -49.5 -56s-45.167 -21 -70.5 -21h-12
c-17.333 -31.333 -40.666 -55.833 -69.999 -73.5s-62 -26.5 -98 -26.5c-26.667 0 -51.5 5 -74.5 15s-43 23.833 -60 41.5s-30.333 38.167 -40 61.5s-14.5 48 -14.5 74s4.83301 50.833 14.5 74.5s23 44.167 40 61.5s37 31.166 60 41.499s47.833 15.5 74.5 15.5
s51.5 -5.16699 74.5 -15.5s43.167 -24.166 60.5 -41.499s31 -37.833 41 -61.5s15 -48.5 15 -74.5v-1c5.33301 2 9.66602 4.83301 12.999 8.5l10 10.5c5.33301 7.33301 10.833 13.666 16.5 18.999s14.167 8 25.5 8c12 0 22.667 -4.16699 32 -12.5s14 -18.833 14 -31.5z" />
    <glyph glyph-name="p" unicode="p" horiz-adv-x="420" 
d="M467 151c0 -5.33301 -1.66504 -12.0039 -4.99805 -20.0039v-3c-6 -12.667 -13.833 -26.667 -23.5 -42s-20.834 -31.666 -33.501 -48.999l1 1c-6.66699 -9.33301 -13 -17.5 -19 -24.5s-12.333 -13.833 -19 -20.5c-11.333 -11.333 -23 -20.666 -35 -27.999
s-25.333 -11 -40 -11c-24 0 -43.5 4.5 -58.5 13.5s-26.667 20.833 -35 35.5s-14 31 -17 49s-4.5 36 -4.5 54v117c0 11.333 -4.16699 19.5 -12.5 24.5s-18.166 7.5 -29.499 7.5s-20.833 -5.33301 -28.5 -16s-11.5 -21.667 -11.5 -33l1 -785
c0 -12.667 -4.66699 -23.334 -14 -32.001s-20 -13 -32 -13c-12.667 0 -23.334 4.33301 -32.001 13s-13 19.334 -13 32.001l-1 684h-5c-12.667 0 -23.334 4.33301 -32.001 13s-13 19.334 -13 32.001c0 2.66699 0.166992 5.5 0.5 8.5s1.5 6.5 3.5 10.5l-2 -4
c2 6.66699 4.5 13.334 7.5 20.001s5.83301 13.334 8.5 20.001l10.5 26c3.66699 8.66699 6.83398 17.334 9.50098 26.001c0 2 0.333008 4 1 6c0 1.33301 0.666992 5.33301 2 12c1.33301 6 2.83301 11.833 4.5 17.5s4.16699 13.167 7.5 22.5c4 8.66699 9 16 15 22
s15.333 9 28 9c14 0 24.667 -4 32 -12c8.66699 4 17.334 6.83301 26.001 8.5s17.667 2.5 27 2.5c18 0 35.167 -2.66699 51.5 -8s30.5 -13.333 42.5 -24s21.5 -23.5 28.5 -38.5s10.5 -32.167 10.5 -51.5v-117c0 -6.66699 0.166992 -13.667 0.5 -21s1.16602 -14 2.49902 -20
s3.66602 -11 6.99902 -15s8 -6 14 -6c3.33301 0 8 3.83301 14 11.5l19 25.5c9.33301 13.333 18.5 27.166 27.5 41.499s15.833 26.166 20.5 35.499c4 9.33301 9 17.833 15 25.5s16.333 11.5 31 11.5c11.333 0 22 -4.16699 32 -12.5s15 -18.833 15 -31.5z" />
    <glyph glyph-name="q" unicode="q" horiz-adv-x="477" 
d="M244 150c0 14 -2.5 27.5 -7.5 40.5s-12 24.333 -21 34s-19.667 17.5 -32 23.5s-25.5 9 -39.5 9s-27 -3 -39 -9s-22.333 -13.833 -31 -23.5s-15.5 -21 -20.5 -34s-7.5 -26.5 -7.5 -40.5s2.5 -27.333 7.5 -40s11.833 -23.834 20.5 -33.501s19 -17.5 31 -23.5s25 -9 39 -9
s27.167 3 39.5 9s23 13.833 32 23.5s16 20.834 21 33.501s7.5 26 7.5 40zM523 151l-0.00292969 -6.00195c0 -2 -0.666992 -4.66699 -2 -8v5v-4c-5.33301 -14.667 -14.166 -32.5 -26.499 -53.5s-26.666 -41.167 -42.999 -60.5s-34 -35.833 -53 -49.5s-37.5 -20.5 -55.5 -20.5
c-1.33301 0 -2.16602 -0.166992 -2.49902 -0.5s-0.833008 -0.5 -1.5 -0.5h-1h-1c-1.33301 0 -2 0.333008 -2 1c-0.666992 -89.333 -1.16699 -178.666 -1.5 -267.999s-0.833008 -178.666 -1.5 -267.999c-0.666992 -12 -5.66699 -22.5 -15 -31.5s-19.666 -13.5 -30.999 -13.5
c-12.667 0 -23.334 4.33301 -32.001 13s-13 19.334 -13 32.001l2 565c-30.667 -19.333 -63.667 -29 -99 -29c-26.667 0 -51.5 5.33301 -74.5 16s-43 25 -60 43s-30.333 38.833 -40 62.5s-14.5 48.5 -14.5 74.5s4.83301 50.833 14.5 74.5s23 44.667 40 63s37 32.833 60 43.5
s47.833 16 74.5 16c36.667 0 70.667 -10.333 102 -31c2.66699 8 7.16699 14.833 13.5 20.5s16.166 8.5 29.499 8.5s24.333 -4.66699 33 -14s13 -20 13 -32v-230c0 -6 0.5 -11.667 1.5 -17s3.16699 -8 6.5 -8c6.66699 0 14.167 4.33301 22.5 13s16.5 19 24.5 31
s15.333 24.167 22 36.5s11.667 22.166 15 29.499c0.666992 1.33301 1.33398 2.5 2.00098 3.5s1.33398 2.16699 2.00098 3.5c4 8.66699 9.16699 16.5 15.5 23.5s16.166 10.5 29.499 10.5c11.333 0 22 -3.83301 32 -11.5s15 -18.5 15 -32.5z" />
    <glyph glyph-name="r" unicode="r" horiz-adv-x="400" 
d="M446 156l-0.00195312 -5.00195c0 -0.666992 -0.666992 -2.66699 -2 -6v-2c-4 -9.33301 -8.16699 -18 -12.5 -26l-13.5 -24l-11 -18c-8.66699 -14 -18.5 -27.833 -29.5 -41.5s-22.833 -25.667 -35.5 -36s-26.167 -18.833 -40.5 -25.5s-28.833 -10 -43.5 -10
c-17.333 0 -33.333 3.33301 -48 10s-27.667 15.834 -39 27.501s-20.166 25 -26.499 40s-9.5 30.833 -9.5 47.5c0 16 1.66699 30.833 5 44.5s7.66602 27.5 12.999 41.5c4 12 7.66699 23.833 11 35.5s5 23.167 5 34.5c0 2 -4.83301 3.16699 -14.5 3.5s-17.5 0.5 -23.5 0.5
c-7.33301 0 -14 -0.5 -20 -1.5s-11.667 -2.16699 -17 -3.5l-5 -2c0 0.666992 -2 0.666992 -6 0c-4 -13.333 -9.16699 -27.833 -15.5 -43.5s-12.833 -30.5 -19.5 -44.5l-1 -1l-5 -10c-5.33301 -10 -11.666 -19.5 -18.999 -28.5s-17.333 -13.5 -30 -13.5
c-12 0 -22.667 4.33301 -32 13s-14 19.334 -14 32.001c0 2.66699 1.5 8 4.5 16s5.83301 14 8.5 18l18 42c6 14.667 11.333 28.667 16 42c-9.33301 9.33301 -16.666 20 -21.999 32s-8 24.333 -8 37c0 10.667 1 21.334 3 32.001s5.83301 20.167 11.5 28.5s13 15 22 20
s20.5 7.5 34.5 7.5c21.333 0 38 -7.16699 50 -21.5s18 -30.833 18 -49.5v-13c5.33301 0.666992 10.166 1.16699 14.499 1.5s8.83301 0.5 13.5 0.5c12.667 0 26.667 -1.5 42 -4.5s29.333 -8.16699 42 -15.5s23.334 -17 32.001 -29s13 -27 13 -45c0 -16 -2 -31 -6 -45l-12 -41
c-4 -12 -7.66699 -23.833 -11 -35.5s-5 -23.167 -5 -34.5c0 -9.33301 3.16699 -17.5 9.5 -24.5s13.833 -10.5 22.5 -10.5c10.667 0 22.334 6.66699 35.001 20s23 27.333 31 42v-1c2 4 4.16699 8 6.5 12l6.5 11c3.33301 6 6.83301 11.667 10.5 17s7.5 12.666 11.5 21.999v-1
c7.33301 17.333 20.666 26 39.999 26c11.333 0 22 -4.16699 32 -12.5s15 -18.833 15 -31.5z" />
    <glyph glyph-name="s" unicode="s" horiz-adv-x="395" 
d="M106 285c2 2 3.66797 5.33301 5.00098 10c-1.33301 -2 -2.33301 -3.83301 -3 -5.5s-1.33398 -3.16699 -2.00098 -4.5zM52.001 157c-2 -5.33301 -4.33301 -10.832 -7 -16.499s-6.66699 -10.834 -12 -15.501c12 -2 20 -6.5 24 -13.5s7.33301 -14.833 10 -23.5
c0.666992 -1.33301 1 -2.33301 1 -3s0.333008 -1.66699 1 -3v2c2 -3.33301 6 -7 12 -11s12.5 -7.5 19.5 -10.5s14.167 -5.5 21.5 -7.5s13 -3 17 -3c12 0 22.833 2.83301 32.5 8.5s17.667 13 24 22s11.333 19.167 15 30.5s5.5 23 5.5 35s-4.33301 22.667 -13 32
s-19.667 17.5 -33 24.5s-27.833 12.833 -43.5 17.5s-30.167 8.66699 -43.5 12c-1.33301 -4 -3 -8.66699 -5 -14l-6 -16l-10 -23.5zM441.001 156.001v-5.00098c0 -0.666992 -0.666992 -2.66699 -2 -6v-2c-24 -56.667 -57.333 -101 -100 -133s-94.667 -48 -156 -48h-44
c-13.333 0 -29.166 3.16699 -47.499 9.5s-36 14.833 -53 25.5s-31.5 23.167 -43.5 37.5s-18 29.833 -18 46.5c0 11.333 4 21.666 12 30.999c-10 2.66699 -18.167 7.83398 -24.5 15.501s-9.5 16.834 -9.5 27.501c0 2 1.66699 7.5 5 16.5s7.5 19.5 12.5 31.5l15.5 36.5
c5.33301 12.333 10 22.5 14 30.5c-17.333 18 -26 40.667 -26 68c0 23.333 6.83301 42.833 20.5 58.5s32.834 23.5 57.501 23.5c20.667 0 38.167 -7 52.5 -21s21.5 -31.333 21.5 -52c0 -4 -0.833008 -8.66699 -2.5 -14l-5.5 -17c20.667 -5.33301 42 -12.166 64 -20.499
s42.167 -19.166 60.5 -32.499s33.333 -29.5 45 -48.5s17.5 -41.167 17.5 -66.5c0 -16.667 -2 -33.334 -6 -50.001c7.33301 7.33301 13.5 14 18.5 20s10.167 13.333 15.5 22c0.666992 1.33301 1.66699 3.66602 3 6.99902s2.66602 5.66602 3.99902 6.99902
c2.66699 4.66699 5.16699 9.33398 7.5 14.001s4.83301 8.66699 7.5 12c5.33301 7.33301 10.166 12.5 14.499 15.5s11.833 4.5 22.5 4.5c11.333 0 22 -4.16699 32 -12.5s15 -18.833 15 -31.5z" />
    <glyph glyph-name="t" unicode="t" horiz-adv-x="247" 
d="M292 159l-0.00488281 -5.99805c0 -2.66699 -0.666992 -5.33398 -2 -8.00098c-5.33301 -15.333 -14.166 -33.333 -26.499 -54s-26.5 -40.667 -42.5 -60s-33.5 -35.666 -52.5 -48.999s-37.5 -20 -55.5 -20c-25.333 0 -47.666 4.66699 -66.999 14s-35.833 22 -49.5 38
s-24 34.5 -31 55.5s-10.5 42.833 -10.5 65.5v450c0 12.667 4.66699 23.334 14 32.001s20 13 32 13c12.667 0 23.334 -4.33301 32.001 -13s13 -19.334 13 -32.001v-114h154c12.667 0 23.334 -4.33301 32.001 -13s13 -19.334 13 -32.001s-4.33301 -23.334 -13 -32.001
s-19.334 -13 -32.001 -13h-154v-246c0 -21.333 5.66699 -40.5 17 -57.5s28 -25.5 50 -25.5c6.66699 0 14.167 4.33301 22.5 13s16.333 18.834 24 30.501s14.834 23.667 21.501 36s11.667 22.166 15 29.499c0.666992 1.33301 1.5 2.5 2.5 3.5s1.83301 2.16699 2.5 3.5
c5.33301 9.33301 11 17.5 17 24.5s15.667 10.5 29 10.5c12.667 0 23.334 -4.16699 32.001 -12.5s13 -18.833 13 -31.5z" />
    <glyph glyph-name="u" unicode="u" horiz-adv-x="473" 
d="M520 155c0 -4.66699 -0.999023 -9.00391 -2.99902 -13.0039v-3c-7.33301 -14.667 -16.833 -32.167 -28.5 -52.5s-25.167 -39.666 -40.5 -57.999s-32 -34 -50 -47s-37 -19.5 -57 -19.5c-34.667 0 -59.667 11.333 -75 34c-12.667 -10.667 -26.5 -19 -41.5 -25
s-30.833 -9 -47.5 -9c-21.333 0 -42.166 3.33301 -62.499 10s-38.5 16.334 -54.5 29.001s-29 28 -39 46s-15.333 38.667 -16 62h-5c-12.667 0 -23.334 4.33301 -32.001 13s-13 19.334 -13 32.001c0 6 2.5 15.5 7.5 28.5l15.5 39.5c1.33301 4 2.83301 8.16699 4.5 12.5
l4.5 11.5c2 4 3.66699 8 5 12c0.666992 1.33301 1.33398 3.16602 2.00098 5.49902s1.66699 7.16602 3 14.499v-1c2.66699 10 5.16699 20 7.5 30s7.16602 18.667 14.499 26c8.66699 8.66699 19.334 13 32.001 13c13.333 0 24.166 -5 32.499 -15s12.5 -20.667 12.5 -32v-182
c0 -21.333 8.33301 -37.666 25 -48.999s35.334 -17 56.001 -17c10.667 0 20.167 3.16699 28.5 9.5s15.166 14.333 20.499 24s9.33301 20.334 12 32.001s4 22.834 4 33.501v149c0 12.667 4.33301 23.334 13 32.001s19.334 13 32.001 13c12 0 22.667 -4.33301 32 -13
s14 -19.334 14 -32.001v-224c0 -5.33301 0.5 -10.666 1.5 -15.999s3.16699 -8 6.5 -8c6 0 12.5 3.5 19.5 10.5s14 15.5 21 25.5s13.667 20.167 20 30.5s11.166 18.5 14.499 24.5c1.33301 2.66699 2.83301 5.16699 4.5 7.5s3.16699 5.16602 4.5 8.49902
c1.33301 2 2.33301 4.16699 3 6.5s1.66699 4.5 3 6.5c1.33301 2.66699 2.66602 5 3.99902 7c10 14 22.667 21 38 21c11.333 0 22 -4.16699 32 -12.5s15 -18.833 15 -31.5z" />
    <glyph glyph-name="v" unicode="v" horiz-adv-x="426" 
d="M478 160c0 -2 -0.5 -4.99707 -1.5 -8.99707s-2.16699 -7.66699 -3.5 -11c-11.333 -21.333 -28 -38.833 -50 -52.5s-44.333 -21.5 -67 -23.5c-15.333 -32 -35.833 -57 -61.5 -75s-57.167 -27 -94.5 -27c-31.333 0 -56 6.66699 -74 20s-31.667 30.166 -41 50.499
s-15.333 42.833 -18 67.5s-4 48 -4 70v12c-7.33301 -19.333 -16 -36.333 -26 -51s-22.333 -22 -37 -22c-12.667 0 -23.334 4.33301 -32.001 13s-13 19.334 -13 32.001c0 4 1.66699 11.333 5 22s7.33301 21.667 12 33l14 33c4.66699 10.667 8 18 10 22
c4 7.33301 8.83301 15.666 14.5 24.999s12 18.166 19 26.499s15.333 15.333 25 21s20.5 8.5 32.5 8.5c14.667 0 26.5 -3.5 35.5 -10.5s15.833 -15.833 20.5 -26.5s7.83398 -21.834 9.50098 -33.501s2.5 -22.167 2.5 -31.5c0 -7.33301 -0.166992 -14.166 -0.5 -20.499
s-0.5 -12.833 -0.5 -19.5c-0.666992 -6.66699 -1 -13 -1 -19v-19c0 -10.667 0.333008 -22.5 1 -35.5s2.5 -25.333 5.5 -37s7.66699 -21.5 14 -29.5s15.166 -12 26.499 -12c13.333 0 26.333 3.16699 39 9.5s22.667 14.833 30 25.5c-10.667 8 -19.667 17.667 -27 29
s-13.166 23 -17.499 35s-7.5 23.833 -9.5 35.5s-3 21.5 -3 29.5c0 12.667 1 26.5 3 41.5s6 28.833 12 41.5s14.667 23.167 26 31.5s26.333 12.5 45 12.5c16.667 0 30.5 -5.33301 41.5 -16s19.833 -23.334 26.5 -38.001s11.334 -30.167 14.001 -46.5s4 -29.833 4 -40.5v-19
c0 -5.33301 -0.333008 -11 -1 -17c2.66699 2 4.66699 4.66699 6 8v-1c5.33301 10.667 10.666 18.667 15.999 24s14.333 8 27 8c12 0 22.667 -4.16699 32 -12.5s14 -18.833 14 -31.5z" />
    <glyph glyph-name="w" unicode="w" horiz-adv-x="641" 
d="M692 160c0 -2 -0.496094 -4.99902 -1.49609 -8.99902s-2.16699 -7.66699 -3.5 -11c-11.333 -22 -27.833 -39.833 -49.5 -53.5s-43.834 -21.167 -66.501 -22.5c-15.333 -32 -35.833 -57 -61.5 -75s-57.167 -27 -94.5 -27c-21.333 0 -40.166 4.33301 -56.499 13
s-30.5 20.334 -42.5 35.001c-15.333 -16 -33.166 -28 -53.499 -36s-42.166 -12 -65.499 -12c-20.667 0 -39.334 4.5 -56.001 13.5s-31 20.833 -43 35.5s-21.167 31.334 -27.5 50.001s-9.5 37.334 -9.5 56.001v61c-6.66699 -18.667 -14.5 -34.834 -23.5 -48.501
s-21.5 -20.5 -37.5 -20.5c-12.667 0 -23.334 4.33301 -32.001 13s-13 19.334 -13 32.001c0 4 1.66699 11.333 5 22s7.16602 22 11.499 34s8.83301 23.167 13.5 33.5s8 17.5 10 21.5v-1c0.666992 1.33301 1.16699 2.16602 1.5 2.49902s0.833008 1.16602 1.5 2.49902
c4 8 8.66699 16.333 14 25s11.5 16.834 18.5 24.501s15 14 24 19s19.167 7.5 30.5 7.5c14.667 0 26.5 -3.5 35.5 -10.5s15.833 -15.833 20.5 -26.5s7.83398 -21.834 9.50098 -33.501s2.5 -22.167 2.5 -31.5v-126c0 -7.33301 1 -14.833 3 -22.5s4.83301 -14.834 8.5 -21.501
s8.16699 -12 13.5 -16s11.666 -6 18.999 -6c20.667 0 36.5 5.83301 47.5 17.5s19.167 26.334 24.5 44.001s8.5 36.5 9.5 56.5s1.5 38.667 1.5 56v74c0 12.667 4.33301 23.334 13 32.001s19.334 13 32.001 13c12 0 22.667 -4.33301 32 -13s14 -19.334 14 -32.001v-182
c0 -7.33301 1 -14.833 3 -22.5s4.83301 -14.834 8.5 -21.501s8.16699 -12 13.5 -16s11.666 -6 18.999 -6c13.333 0 26.166 3 38.499 9s22.166 14.667 29.499 26c-10.667 8 -19.667 17.667 -27 29s-13.166 23 -17.499 35s-7.5 23.833 -9.5 35.5s-3 21.5 -3 29.5
c0 12.667 1 26.5 3 41.5s6.16699 28.833 12.5 41.5s15.166 23.167 26.499 31.5s26.333 12.5 45 12.5c16.667 0 30.5 -5.33301 41.5 -16s19.667 -23.334 26 -38.001s10.833 -30.167 13.5 -46.5s4 -29.833 4 -40.5v-19c0 -6.66699 -0.333008 -12.667 -1 -18
c3.33301 2 5.66602 5 6.99902 9v-1c5.33301 10.667 10.666 18.667 15.999 24s14.333 8 27 8s23.334 -4.16699 32.001 -12.5s13 -18.833 13 -31.5z" />
    <glyph glyph-name="x" unicode="x" horiz-adv-x="617" 
d="M663 155l0.00195312 -6c0 -2.66699 -0.666992 -5.33398 -2 -8.00098c-10 -24 -21.833 -46.667 -35.5 -68s-29.334 -40.333 -47.001 -57s-37.667 -29.834 -60 -39.501s-47.166 -14.5 -74.499 -14.5c-28 0 -54.667 6.16699 -80 18.5s-46.666 28.5 -63.999 48.5
c-17.333 -23.333 -38.333 -40.333 -63 -51s-52 -16 -82 -16c-14 0 -27.833 2.33301 -41.5 7s-26.834 11 -39.501 19s-24.167 17.167 -34.5 27.5s-19.166 20.833 -26.499 31.5c-5.33301 8 -8 16.667 -8 26c0 13.333 4.33301 23.833 13 31.5s19.334 11.5 32.001 11.5
c8 0 15.833 -3 23.5 -9s15.167 -12.667 22.5 -20s16.333 -15.166 27 -23.499s21.334 -12.5 32.001 -12.5c14 0 27 2.83301 39 8.5s22.5 13.167 31.5 22.5s16.167 20.166 21.5 32.499s8 25.5 8 39.5s-2.66699 27.167 -8 39.5s-12.5 23.333 -21.5 33
s-19.5 17.334 -31.5 23.001s-25 8.5 -39 8.5c-12.667 0 -23.334 -1.83301 -32.001 -5.5s-16 -8.5 -22 -14.5s-11.333 -13.167 -16 -21.5s-9 -17.166 -13 -26.499l-14.5 -28.5c-5 -9.66699 -11.5 -20.167 -19.5 -31.5c-4.66699 -6 -9.83398 -11 -15.501 -15
s-13.167 -6 -22.5 -6c-12.667 0 -23.334 4.33301 -32.001 13s-13 19.334 -13 32.001c0 5.33301 2 12.833 6 22.5s8.5 19.667 13.5 30s10.167 20 15.5 29s9.66602 15.833 12.999 20.5c18 29.333 38.833 51.833 62.5 67.5s53.5 23.5 89.5 23.5c30 0 57.333 -5.5 82 -16.5
s45.667 -28.167 63 -51.5c17.333 21.333 38.333 38 63 50s51.667 18 81 18c23.333 0 47.666 -4.66699 72.999 -14s46 -23.333 62 -42c8 -10 12 -20 12 -30c0 -12.667 -4.66699 -23.167 -14 -31.5s-20 -12.5 -32 -12.5c-4.66699 0 -9.33398 1.33301 -14.001 4l-16 9
c-8 5.33301 -18.5 11.333 -31.5 18s-26.167 10 -39.5 10c-14 0 -26.833 -2.83301 -38.5 -8.5s-22 -13.334 -31 -23.001s-16 -20.667 -21 -33s-7.5 -25.5 -7.5 -39.5s2.5 -27.167 7.5 -39.5s12 -23.166 21 -32.499s19.333 -16.833 31 -22.5s24.5 -8.5 38.5 -8.5
c16.667 0 31.167 3 43.5 9s23 13.667 32 23s16.833 19.5 23.5 30.5s12.667 21.5 18 31.5c8.66699 15.333 16.834 28.166 24.501 38.499s18.167 15.5 31.5 15.5c12 0 22.667 -4.16699 32 -12.5s14 -18.833 14 -31.5z" />
    <glyph glyph-name="y" unicode="y" horiz-adv-x="466" 
d="M241 -165l-0.999023 -2.00195c-0.666992 -1.33301 -1.66699 -2.66602 -3 -3.99902s-2 -2.33301 -2 -3c-16.667 -21.333 -31.334 -45.166 -44.001 -71.499s-19 -57.166 -19 -92.499c0 -13.333 0.166992 -29.833 0.5 -49.5s1.5 -39 3.5 -58s5 -35.167 9 -48.5
s9.66699 -20 17 -20c4.66699 0 9 4 13 12s7.5 18.333 10.5 31s5.5 27 7.5 43s3.5 31.667 4.5 47s1.83301 29.666 2.5 42.999s1 24 1 32v141zM513.001 149.998c0 -8.66699 -2.32617 -16.332 -6.99316 -22.999l1 2c-21.333 -40.667 -46.833 -76.5 -76.5 -107.5
s-62.5 -59.833 -98.5 -86.5v-235c0 -16.667 -0.833008 -36.167 -2.5 -58.5s-4.66699 -45.5 -9 -69.5s-9.66602 -47.667 -15.999 -71s-14.333 -44.333 -24 -63s-21 -33.667 -34 -45s-27.833 -17 -44.5 -17c-25.333 0 -46 9.83301 -62 29.5s-28.333 44 -37 73
s-14.5 60 -17.5 93s-4.5 62.833 -4.5 89.5c0 36.667 5.66699 71.334 17 104.001s25.666 63 42.999 91c12.667 20.667 26 40.167 40 58.5s28 34.166 42 47.499c-16 -5.33301 -31.667 -8 -47 -8c-22 0 -43.167 3.5 -63.5 10.5s-38.166 17.167 -53.499 30.5
s-28 29.166 -38 47.499s-15.333 39.166 -16 62.499h-5c-12.667 0 -23.334 4.33301 -32.001 13s-13 19.334 -13 32.001c0 3.33301 0.166992 6.5 0.5 9.5s1.5 6.5 3.5 10.5c1.33301 3.33301 2.66602 6.33301 3.99902 9s2.66602 5.66699 3.99902 9l-1 -1l15 36.5
c4.66699 11.667 8.66699 23.5 12 35.5c1.33301 2.66699 2.66602 8.33398 3.99902 17.001c0.666992 8.66699 4.33398 21 11.001 37l-1 -1c3.33301 9.33301 8.16602 17.333 14.499 24s16.166 10 29.499 10s24.166 -5 32.499 -15s12.5 -20.667 12.5 -32v-187
c0 -22 8 -38.833 24 -50.5s34.667 -17.5 56 -17.5c11.333 0 21.166 3.33301 29.499 10s15.166 15 20.499 25s9.16602 21 11.499 33s3.5 23.333 3.5 34v152c0 13.333 4.33301 24.166 13 32.499s19.334 12.5 32.001 12.5c12 0 22.667 -4.16699 32 -12.5s14 -19.166 14 -32.499
v-247c11.333 11.333 23.833 24.833 37.5 40.5s25.167 30.167 34.5 43.5c1.33301 1.33301 2.5 3 3.5 5s2.16699 3.66699 3.5 5c1.33301 2 2.33301 3.66699 3 5c5.33301 10 10.333 18.333 15 25c10 13.333 22.333 20 37 20c11.333 0 22 -4.33301 32 -13s15 -19.334 15 -32.001
z" />
    <glyph glyph-name="z" unicode="z" horiz-adv-x="393" 
d="M298 -340c0 39.333 -1.83594 79.666 -5.50293 120.999s-10.5 80.666 -20.5 117.999c-12.667 -17.333 -24.5 -34.666 -35.5 -51.999s-20.667 -35.666 -29 -54.999s-15 -40 -20 -62s-7.5 -46.333 -7.5 -73c0 -14 1.16699 -30.833 3.5 -50.5s5.83301 -38.667 10.5 -57
s10.834 -34 18.501 -47s16.5 -19.5 26.5 -19.5c10.667 0 19.834 6.66699 27.501 20s13.834 29.5 18.501 48.5s8 38.5 10 58.5s3 36.667 3 50zM436.997 152c0 -2.66699 -0.162109 -5.16602 -0.495117 -7.49902s-1.5 -5.5 -3.5 -9.5c-10 -28 -22.667 -53.5 -38 -76.5
s-32.333 -45.167 -51 -66.5c6.66699 -23.333 12.834 -49.166 18.501 -77.499s10.667 -57.166 15 -86.499s7.66602 -58.5 9.99902 -87.5s3.5 -55.833 3.5 -80.5c0 -26.667 -2.66699 -56.5 -8 -89.5s-14 -63.833 -26 -92.5s-27.667 -52.834 -47 -72.501s-43 -29.5 -71 -29.5
c-27.333 0 -50.666 9.5 -69.999 28.5s-35.166 42.667 -47.499 71s-21.333 58.833 -27 91.5s-8.5 62.667 -8.5 90c0.666992 38 4.5 72.5 11.5 103.5s16.5 59.667 28.5 86s26.167 51.333 42.5 75s34.5 47.5 54.5 71.5c-8.66699 -2 -17.834 -5.33301 -27.501 -10l-24.5 -12
c-7.33301 -4 -14.833 -7.66699 -22.5 -11s-14.5 -5 -20.5 -5c-12.667 0 -23.334 3.83301 -32.001 11.5s-13 18.167 -13 31.5l1 7c3.33301 13.333 8.33301 28.333 15 45l21 52c11.333 27.333 21.833 53.833 31.5 79.5s14.5 45.167 14.5 58.5c0 2 -4.33301 3.33301 -13 4
s-16 1 -22 1c-8.66699 0 -19.667 -1.66699 -33 -5c-3.33301 -0.666992 -6.5 -1.33398 -9.5 -2.00098s-6.16699 -1.33398 -9.5 -2.00098c-2 -8.66699 -4.5 -18.167 -7.5 -28.5l-9 -30c-3 -9.66699 -6.33301 -18.834 -10 -27.501s-7.5 -16 -11.5 -22
c-4.66699 -6.66699 -9.16699 -12 -13.5 -16s-12.833 -6 -25.5 -6s-23.334 4.33301 -32.001 13s-13 19.334 -13 32.001c0 1.33301 1.33301 6.5 4 15.5l9 29.5l13 37l9 26c-9.33301 9.33301 -16.833 20.166 -22.5 32.499s-8.5 25.166 -8.5 38.499
c0 10.667 1.33301 21.334 4 32.001s7 20.334 13 29.001s13.667 15.667 23 21s20.666 8 33.999 8c10.667 0 20.167 -2.33301 28.5 -7s15.333 -10.5 21 -17.5s10 -15.167 13 -24.5s4.5 -18.333 4.5 -27c0 -5.33301 -0.333008 -9.33301 -1 -12
c5.33301 1.33301 10.333 2.33301 15 3s9.66699 1 15 1c14 0 28.333 -1.66699 43 -5s28.167 -8.83301 40.5 -16.5s22.5 -17.667 30.5 -30s12 -27.166 12 -44.499c0 -14 -2.83301 -29.5 -8.5 -46.5l-16.5 -48.5c-2.66699 -6 -5.33398 -12.5 -8.00098 -19.5
s-4.66699 -13.167 -6 -18.5c-0.666992 -4 -1.83398 -8 -3.50098 -12s-3.16699 -8 -4.5 -12c4 0.666992 8.33301 1 13 1h12c20.667 0 38.667 -5.33301 54 -16l26.5 36.5c8.33301 11.667 15.5 24.167 21.5 37.5c0 2 1 4 3 6c1.33301 3.33301 2.66602 7 3.99902 11
s4.33301 9.66699 9 17c4 6 8.5 11 13.5 15s13.167 6 24.5 6c12 0 22.667 -4.33301 32 -13s14 -19.334 14 -32.001z" />
    <glyph glyph-name="braceleft" unicode="{" horiz-adv-x="240" 
d="M25 320c0.666992 0 1 0.333008 1 1zM221 -262c0 -12.667 -4.66699 -23.334 -14 -32.001s-20 -13 -32 -13c-27.333 0 -48.666 7.83301 -63.999 23.5s-27 34.5 -35 56.5s-13 45.167 -15 69.5s-3 45.166 -3 62.499v41c0 13.333 0.333008 26.666 1 39.999
c0 10 0.166992 23.167 0.5 39.5s0.5 29.833 0.5 40.5c0 9.33301 -0.333008 21.666 -1 36.999s-2 30.833 -4 46.5s-5 30 -9 43s-9.66699 22.167 -17 27.5c-1.33301 0.666992 -4 1.66699 -8 3c-6 1.33301 -12 3.16602 -18 5.49902s-11.667 5.33301 -17 9
s-9.66602 8.33398 -12.999 14.001s-5 12.5 -5 20.5c0 16.667 4.66699 27.667 14 33s20 9.33301 32 12c2.66699 0.666992 5.66699 1.83398 9 3.50098s4.33301 1.83398 3 0.500977c8.66699 6 15.5 15.833 20.5 29.5s8.5 28.667 10.5 45s3.16699 32.666 3.5 48.999
s0.5 29.833 0.5 40.5c0 12.667 -0.166992 25.167 -0.5 37.5s-0.5 25.166 -0.5 38.499v77c0 17.333 0.833008 38.166 2.5 62.499s6.33398 47.5 14.001 69.5s19.167 40.833 34.5 56.5s36.666 23.5 63.999 23.5c12 0 22.667 -4.33301 32 -13s14 -19.334 14 -32.001
c0 -18 -4.83301 -29.667 -14.5 -35s-20.167 -9.33301 -31.5 -12c-1.33301 -0.666992 -2.66602 -1.16699 -3.99902 -1.5s-2.66602 -0.833008 -3.99902 -1.5l3 1c-4.66699 -2 -8.33398 -8 -11.001 -18s-4.5 -21.167 -5.5 -33.5s-1.66699 -24.666 -2 -36.999
s-0.5 -22.166 -0.5 -29.499v-39c0 -12.667 0.333008 -25.334 1 -38.001c0 -13.333 0.166992 -26.166 0.5 -38.499s0.5 -24.833 0.5 -37.5c0 -16 -0.333008 -33.5 -1 -52.5s-2.5 -38 -5.5 -57s-7.66699 -37.5 -14 -55.5s-15.5 -34 -27.5 -48c11.333 -14 20 -29.833 26 -47.5
s10.5 -36 13.5 -55s4.83301 -37.833 5.5 -56.5s1 -35.667 1 -51c0 -14 -0.166992 -28.167 -0.5 -42.5s-0.5 -28.166 -0.5 -41.499c-0.666992 -14 -1 -27.667 -1 -41v-41c0 -6.66699 0.166992 -15.667 0.5 -27s1.16602 -22.666 2.49902 -33.999
s3.16602 -21.666 5.49902 -30.999s5.83301 -15.333 10.5 -18c1.33301 -1.33301 3.66602 -2 6.99902 -2c11.333 -2.66699 21.833 -6.66699 31.5 -12s14.5 -16.666 14.5 -33.999z" />
    <glyph glyph-name="bar" unicode="|" horiz-adv-x="174" 
d="M133 7c0 -12.667 -4.66699 -23.334 -14 -32.001s-20 -13 -32 -13c-12.667 0 -23.334 4.33301 -32.001 13s-13 19.334 -13 32.001v711c0 12.667 4.33301 23.334 13 32.001s19.334 13 32.001 13c12 0 22.667 -4.33301 32 -13s14 -19.334 14 -32.001v-711z" />
    <glyph glyph-name="braceright" unicode="}" horiz-adv-x="240" 
d="M273 272c0 -8 -1.66699 -14.833 -5 -20.5s-7.66602 -10.334 -12.999 -14.001s-11.166 -6.66699 -17.499 -9s-12.5 -4.16602 -18.5 -5.49902c-1.33301 -0.666992 -2.83301 -1.16699 -4.5 -1.5s-2.83398 -0.833008 -3.50098 -1.5
c-7.33301 -5.33301 -13 -14.666 -17 -27.999s-7 -28.166 -9 -44.499s-3.16699 -32.5 -3.5 -48.5s-0.5 -29 -0.5 -39v-40c0 -12.667 0.333008 -25.667 1 -39c0 -13.333 0.166992 -26.333 0.5 -39s0.5 -25.667 0.5 -39c0 -17.333 -1.16699 -38 -3.5 -62s-7.5 -47 -15.5 -69
s-19.833 -40.667 -35.5 -56s-36.834 -23 -63.501 -23c-12.667 0 -23.334 4.33301 -32.001 13s-13 19.334 -13 32.001c0 9.33301 1.33301 16.666 4 21.999s6.16699 9.66602 10.5 12.999s9.16602 5.66602 14.499 6.99902l16 4c1.33301 0 3 0.333008 5 1
s3.33301 1.33398 4 2.00098c4 4.66699 7 11.667 9 21s3.66699 19.166 5 29.499s2.16602 20.666 2.49902 30.999s0.5 18.833 0.5 25.5c0 14 -0.166992 27.833 -0.5 41.5s-0.5 27.5 -0.5 41.5v83c0 16 0.333008 33.333 1 52s2.5 37.5 5.5 56.5s7.5 37.5 13.5 55.5
s14.667 34 26 48c-12 14 -21.167 30.167 -27.5 48.5s-11 37.166 -14 56.499s-4.83301 38.5 -5.5 57.5s-1 36.5 -1 52.5v40c0 13.333 0.333008 26.666 1 39.999c0 10 0.166992 22.833 0.5 38.5s0.5 28.834 0.5 39.501c0 6.66699 -0.166992 16 -0.5 28
s-1.16602 23.833 -2.49902 35.5s-3.5 22.334 -6.5 32.001s-7.5 15.834 -13.5 18.501c1.33301 -0.666992 1 -1 -1 -1c-1.33301 0 -2.66602 0.333008 -3.99902 1c-10 2.66699 -19.5 6.66699 -28.5 12s-13.5 16.666 -13.5 33.999c0 12.667 4.33301 23.334 13 32.001
s19.334 13 32.001 13c26.667 0 47.667 -7.83301 63 -23.5s27 -34.5 35 -56.5s13 -45 15 -69s3 -44.333 3 -61c0 -13.333 -0.166992 -26.333 -0.5 -39s-0.5 -25.667 -0.5 -39v-78c0 -10 0.166992 -23.333 0.5 -40s1.5 -33.334 3.5 -50.001s5.33301 -31.834 10 -45.501
s11 -22.5 19 -26.5c1.33301 -0.666992 2.5 -1.16699 3.5 -1.5l4.5 -1.5c12 -3.33301 23.667 -7.66602 35 -12.999s17 -16.666 17 -33.999z" />
    <glyph glyph-name="asciitilde" unicode="~" horiz-adv-x="576" 
d="M400 544c0 -12 -4.33594 -23.166 -13.0029 -33.499s-19.167 -19.166 -31.5 -26.499s-25.166 -13 -38.499 -17s-24.333 -6 -33 -6c-24 0 -45.333 4.66699 -64 14s-35.667 19 -51 29h1c-9.33301 6 -18.166 11.333 -26.499 16s-15.833 7 -22.5 7
c-2 0 -4.33301 -1.83301 -7 -5.5s-5.66699 -7.16699 -9 -10.5v1c-5.33301 -8 -11.166 -15.167 -17.499 -21.5s-15.166 -9.5 -26.499 -9.5c-12 0 -22.667 3.83301 -32 11.5s-14 18.167 -14 31.5v10c0 3.33301 1.33301 6.66602 4 9.99902
c9.33301 19.333 22.833 35.666 40.5 48.999s38.167 20 61.5 20c21.333 0 39.666 -4 54.999 -12s30.333 -16.667 45 -26c10.667 -7.33301 21.167 -13.833 31.5 -19.5s20.833 -8.5 31.5 -8.5c12 0 21.667 6.33301 29 19v-1c8.66699 15.333 22 23 40 23
c11.333 0 22 -3.83301 32 -11.5s15 -18.5 15 -32.5z" />
    <glyph glyph-name="dieresis" unicode="&#xa8;" horiz-adv-x="360" 
d="M262 447c0 -19.333 -6.66699 -35.5 -20 -48.5s-29.666 -19.5 -48.999 -19.5c-11.333 0 -22 2.5 -32 7.5s-18.333 11.833 -25 20.5c-6 -8.66699 -13.833 -15.5 -23.5 -20.5s-20.167 -7.5 -31.5 -7.5c-18.667 0 -35.167 6.5 -49.5 19.5s-21.5 29.167 -21.5 48.5
s7.16699 35.5 21.5 48.5s30.833 19.5 49.5 19.5c11.333 0 21.833 -2.5 31.5 -7.5s17.5 -11.833 23.5 -20.5c6.66699 8.66699 15 15.5 25 20.5s20.667 7.5 32 7.5c19.333 0 35.666 -6.5 48.999 -19.5s20 -29.167 20 -48.5z" />
    <glyph glyph-name="guillemotleft" unicode="&#xab;" horiz-adv-x="474" 
d="M438 10c0 -12.667 -4.66699 -23.333 -14 -32s-20 -13 -32 -13c-15.333 0 -27.333 5.33301 -36 16h1l-73 86l-73 86l1 -2c-7.33301 7.33301 -11 17.333 -11 30c0 5.33301 0.833008 10.833 2.5 16.5s4.5 10.5 8.5 14.5l-1 -2l73 87l73 87h-1
c8.66699 10.667 20.667 16 36 16c12 0 22.667 -4.33301 32 -13s14 -19.334 14 -32.001c0 -4.66699 -0.833008 -9.16699 -2.5 -13.5s-4.16699 -9.16602 -7.5 -14.499l-122 -146l60.5 -71.5l60.5 -71.5l-1 2c8 -8 12 -18 12 -30zM298 10.001
c0 -12.667 -4.66699 -23.333 -14 -32s-20 -13 -32 -13c-15.333 0 -27.333 5.33301 -36 16h1l-73 86l-73 86l1 -2c-7.33301 7.33301 -11 17.333 -11 30c0 5.33301 0.833008 10.833 2.5 16.5s4.5 10.5 8.5 14.5l-1 -2l73 87l73 87h-1c8.66699 10.667 20.667 16 36 16
c12 0 22.667 -4.33301 32 -13s14 -19.334 14 -32.001c0 -4.66699 -0.833008 -9.16699 -2.5 -13.5s-4.16699 -9.16602 -7.5 -14.499l-122 -146l60.5 -71.5l60.5 -71.5l-1 2c8 -8 12 -18 12 -30z" />
    <glyph glyph-name="minus" unicode="&#xad;" horiz-adv-x="712" 
d="M614 172c0 -13.333 -4.33301 -24.168 -13 -32.501s-19.667 -12.5 -33 -12.5h-425c-12.667 0 -23.334 4.33301 -32.001 13s-13 19.334 -13 32.001c0 13.333 4.33301 24.333 13 33s19.334 13 32.001 13h425c12 0 22.667 -4.33301 32 -13s14 -19.667 14 -33z" />
    <glyph glyph-name="degree" unicode="&#xb0;" horiz-adv-x="240" 
d="M141 616c0 2.66699 -1.33301 4.83398 -4 6.50098s-5.66699 2.5 -9 2.5s-6.16602 -0.833008 -8.49902 -2.5s-3.5 -3.83398 -3.5 -6.50098c0 -3.33301 1.16699 -5.83301 3.5 -7.5s5.16602 -2.5 8.49902 -2.5s6.33301 0.833008 9 2.5s4 4.16699 4 7.5zM232 616
c0 -14.667 -3 -28 -9 -40s-13.833 -22.167 -23.5 -30.5s-20.667 -14.833 -33 -19.5s-25.166 -7 -38.499 -7s-26.166 2.33301 -38.499 7s-23.333 11.167 -33 19.5s-17.334 18.5 -23.001 30.5s-8.5 25.333 -8.5 40s2.83301 27.834 8.5 39.501s13.334 21.667 23.001 30
s20.667 14.833 33 19.5s25.166 7 38.499 7s26.166 -2.33301 38.499 -7s23.333 -11.167 33 -19.5s17.5 -18.333 23.5 -30s9 -24.834 9 -39.501z" />
    <glyph glyph-name="twosuperior" unicode="&#xb2;" horiz-adv-x="133" 
d="M177 139c-6 -14 -15.165 -31.168 -27.498 -51.501s-26.5 -39.833 -42.5 -58.5s-33.333 -34.5 -52 -47.5s-37 -19.5 -55 -19.5c-12.667 0 -23.334 4.16699 -32.001 12.5s-13 18.833 -13 31.5s4.33301 23.167 13 31.5s19.334 12.5 32.001 12.5c6 0 12.5 3.33301 19.5 10
s14 14.834 21 24.501s13.667 19.5 20 29.5s11.166 18 14.499 24v-1l6 12l-1 -3c5.33301 10 11.666 20.333 18.999 31s18.333 16 33 16c11.333 0 22 -4.16699 32 -12.5s15 -18.833 15 -31.5z" />
    <glyph glyph-name="acute" unicode="&#xb4;" horiz-adv-x="198" 
d="M131 626c0 -6.66699 -2.83008 -17.3359 -8.49707 -32.0029s-12.834 -29.5 -21.501 -44.5s-17.834 -28.167 -27.501 -39.5s-18.834 -17 -27.501 -17c-12 0 -22.667 4.16699 -32 12.5s-14 18.833 -14 31.5c0 4.66699 1.66699 10.334 5 17.001s7 13.334 11 20.001
c5.33301 8 10.666 17.167 15.999 27.5s8 18.5 8 24.5c0 2.66699 -1.16699 6.16699 -3.5 10.5s-4.5 8.16602 -6.5 11.499v-1c-3.33301 4.66699 -6.16602 8.83398 -8.49902 12.501s-3.5 9.16699 -3.5 16.5c0 12.667 4.66699 23.334 14 32.001s20 13 32 13
c9.33301 0 18 -3.66699 26 -11s15 -16.166 21 -26.499s10.833 -20.833 14.5 -31.5s5.5 -19.334 5.5 -26.001z" />
    <glyph glyph-name="cedilla" unicode="&#xb8;" horiz-adv-x="373" 
d="M207 -134c-2.66699 -0.666992 -5 -1.33301 -7 -2s-4.33301 -1.33398 -7 -2.00098c4.66699 -2 12 -3 22 -3c2.66699 0 6.66699 -0.166992 12 -0.5s8 -1.16602 8 -2.49902c0 2.66699 -3.16699 5.16699 -9.5 7.5s-11.5 3.5 -15.5 3.5c-1.33301 0 -2.33301 -0.333008 -3 -1z
M326 -143.999c0 -14.667 -3.66504 -27.332 -10.998 -37.999s-16.5 -19.5 -27.5 -26.5s-23 -12.167 -36 -15.5s-25.167 -5 -36.5 -5c-20.667 0 -41.834 3.66699 -63.501 11s-38.167 21.666 -49.5 42.999c-2.66699 3.33301 -4.16699 6.66602 -4.5 9.99902s-0.5 7 -0.5 11
c0 12.667 4.5 23 13.5 31s19.167 12.333 30.5 13v10c0 2.66699 0.166992 5.16699 0.5 7.5s1.16602 5.16602 2.49902 8.49902c4.66699 22.667 7 49 7 79c0 12.667 4.66699 23.167 14 31.5s20 12.5 32 12.5s22.667 -4.16699 32 -12.5s14 -18.833 14 -31.5v-22
c0 -4 -0.666992 -11.333 -2 -22c10 -3.33301 20 -8.16602 30 -14.499s19.167 -13.666 27.5 -21.999s15 -17.5 20 -27.5s7.5 -20.333 7.5 -31z" />
    <glyph glyph-name="ordmasculine" unicode="&#xba;" horiz-adv-x="500" 
 />
    <glyph glyph-name="guillemotright" unicode="&#xbb;" horiz-adv-x="474" 
d="M440 181c0 -12 -4 -22.0029 -12 -30.0029l1 2l-73 -86l-73 -86h1c-8.66699 -10.667 -20.667 -16 -36 -16c-12.667 0 -23.334 4.33301 -32.001 13s-13 19.334 -13 32.001s3.66699 22.667 11 30l-1 -2l32 37.5l29 34l29 34l32 37.5l-61 72.5l-61 72.5l1 -2
c-4 4 -6.83301 8.83301 -8.5 14.5s-2.5 11.167 -2.5 16.5c0 12.667 4.33301 23.334 13 32.001s19.334 13 32.001 13c15.333 0 27.333 -5.33301 36 -16h-1l73.5 -87.5l73.5 -87.5c3.33301 -5.33301 5.83301 -10.166 7.5 -14.499s2.5 -8.83301 2.5 -13.5zM300 180.997
c0 -12 -4 -22.0029 -12 -30.0029l1 2l-73 -86l-73 -86h1c-8.66699 -10.667 -20.667 -16 -36 -16c-12.667 0 -23.334 4.33301 -32.001 13s-13 19.334 -13 32.001s3.66699 22.667 11 30l-1 -2l32 37.5l29 34l29 34l32 37.5l-61 72.5l-61 72.5l1 -2
c-4 4 -6.83301 8.83301 -8.5 14.5s-2.5 11.167 -2.5 16.5c0 12.667 4.33301 23.334 13 32.001s19.334 13 32.001 13c15.333 0 27.333 -5.33301 36 -16h-1l73.5 -87.5l73.5 -87.5c3.33301 -5.33301 5.83301 -10.166 7.5 -14.499s2.5 -8.83301 2.5 -13.5z" />
    <glyph glyph-name="Agrave" unicode="&#xc0;" horiz-adv-x="733" 
d="M368 618c0 6 -0.166016 14.8291 -0.499023 26.4961s-1 23.334 -2 35.001s-2.83301 21.834 -5.5 30.501s-6.33398 13 -11.001 13c-8 0 -14.667 -4.16699 -20 -12.5s-9.5 -18.333 -12.5 -30s-5 -23.667 -6 -36s-1.5 -22.5 -1.5 -30.5c0 -12.667 -0.166992 -25.5 -0.5 -38.5
s-0.833008 -26.167 -1.5 -39.5c0 -6.66699 -0.166992 -12 -0.5 -16l-1 -12c-0.333008 -4 -0.5 -8 -0.5 -12v-16c6.66699 -1.33301 13.167 -3.16602 19.5 -5.49902s12.833 -4.16602 19.5 -5.49902l16 -5c2.66699 26 4.66699 51.833 6 77.5s2 51.167 2 76.5zM458.001 808.996
c0 -9.33301 -2.50195 -17.6631 -7.50195 -24.9961s-11.167 -13 -18.5 -17c6.66699 -11.333 11.834 -24 15.501 -38s6.33398 -28 8.00098 -42s2.66699 -27.667 3 -41s0.5 -25.333 0.5 -36c0 -27.333 -1 -54.333 -3 -81l-6 -80v-1h1c6 0 11.5 2 16.5 6
s9.83301 7.66699 14.5 11h-1c6 5.33301 12 10 18 14s13.667 6 23 6c12.667 0 23.334 -4.66699 32.001 -14s13 -20 13 -32c0 -12.667 -4.33301 -23.334 -13 -32.001c-13.333 -13.333 -28.666 -24.833 -45.999 -34.5s-36.333 -14.5 -57 -14.5c-2 0 -3.33301 -0.166992 -4 -0.5
s-0.666992 -0.5 0 -0.5c-0.666992 0 -1.33398 0.166992 -2.00098 0.5s-1.66699 0.5 -3 0.5c-1.33301 -15.333 -2 -30.333 -2 -45v-45c0 -18 0.5 -39.333 1.5 -64s4.33301 -48.334 10 -71.001s14.667 -41.834 27 -57.501s29.833 -23.5 52.5 -23.5
c14.667 0 28.5 3.16699 41.5 9.5s24 14.666 33 24.999s16.167 22.333 21.5 36s8 27.834 8 42.501c0 6.66699 -1.83301 12.667 -5.5 18s-8.5 8 -14.5 8c-1.33301 0 -2 -1.66699 -2 -5c-3.33301 -10 -7.33301 -19 -12 -27s-15.667 -12 -33 -12c-12 0 -22.667 4.16699 -32 12.5
s-14 19.166 -14 32.499c0 12.667 2.5 24.5 7.5 35.5s11.833 20.5 20.5 28.5s18.667 14.333 30 19s23 7 35 7c16 0 30.833 -3.16699 44.5 -9.5s25.5 -15 35.5 -26s17.667 -23.5 23 -37.5s8 -28.667 8 -44c0 -27.333 -5 -53.166 -15 -77.499s-23.667 -45.833 -41 -64.5
s-37.833 -33.5 -61.5 -44.5s-49.5 -16.5 -77.5 -16.5c-28.667 0 -53 5 -73 15s-36.667 23.333 -50 40s-24 35.834 -32 57.501s-14 44.167 -18 67.5s-6.5 46.5 -7.5 69.5s-1.5 44.167 -1.5 63.5c0 17.333 0.333008 33.666 1 48.999s1.66699 31.666 3 48.999
c-3.33301 1.33301 -7 2.5 -11 3.5s-7.66699 2.16699 -11 3.5h-1c-4.66699 1.33301 -7.66699 2.33301 -9 3l-3 1.5c-0.666992 0.333008 -2 0.5 -4 0.5c-1.33301 0 -4.33301 0.666992 -9 2v-60c0 -41.333 -2 -83.5 -6 -126.5s-13.667 -82.167 -29 -117.5
s-38.166 -64.333 -68.499 -87s-71.833 -34 -124.5 -34c-12.667 0 -26.167 1.66699 -40.5 5s-27.5 8.83301 -39.5 16.5s-22 17.334 -30 29.001s-12 25.5 -12 41.5c0 23.333 8.66699 43 26 59s37.333 24 60 24c30 0 45 -15 45 -45c0 -11.333 -2.16699 -20 -6.5 -26
s-9.5 -10.667 -15.5 -14h13c32.667 0 58.167 8.83301 76.5 26.5s32 39.667 41 66s14.5 55 16.5 86s3 59.5 3 85.5v80c-7.33301 -2.66699 -15.333 -6.33398 -24 -11.001c-4.66699 -3.33301 -9 -6 -13 -8s-9.33301 -3 -16 -3c-12 0 -22.667 4.66699 -32 14s-14 20 -14 32
c0 12.667 4.66699 23.667 14 33c11.333 10.667 24.5 19 39.5 25s30.167 9.66699 45.5 11c0 8 0.166992 16.5 0.5 25.5s0.833008 17.5 1.5 25.5c0.666992 12.667 1.16699 24.834 1.5 36.501s0.5 24.167 0.5 37.5c0 17.333 2 37 6 59s10.5 43 19.5 63s21.167 37.333 36.5 52
s34.666 23 57.999 25c-10.667 9.33301 -21.167 19 -31.5 29s-19.5 19.5 -27.5 28.5s-14.5 17 -19.5 24s-7.5 12.5 -7.5 16.5c0 12.667 4.83301 23.334 14.5 32.001s20.5 13 32.5 13c6.66699 0 11.834 -0.333008 15.501 -1s7.5 -3 11.5 -7
c0.666992 -1.33301 4 -5.33301 10 -12s10.333 -11.667 13 -15l13.5 -15c4.33301 -4.66699 9.16602 -9.33398 14.499 -14.001s11.666 -9.66699 18.999 -15l22 -16l10.5 -8.5l10.5 -8.5c12.667 -10.667 19 -22.334 19 -35.001z" />
    <glyph glyph-name="Aacute" unicode="&#xc1;" horiz-adv-x="733" 
d="M368 618c0 6 -0.166016 14.8291 -0.499023 26.4961s-1 23.334 -2 35.001s-2.83301 21.834 -5.5 30.501s-6.33398 13 -11.001 13c-8 0 -14.667 -4.16699 -20 -12.5s-9.5 -18.333 -12.5 -30s-5 -23.667 -6 -36s-1.5 -22.5 -1.5 -30.5c0 -12.667 -0.166992 -25.5 -0.5 -38.5
s-0.833008 -26.167 -1.5 -39.5c0 -6.66699 -0.166992 -12 -0.5 -16l-1 -12c-0.333008 -4 -0.5 -8 -0.5 -12v-16c6.66699 -1.33301 13.167 -3.16602 19.5 -5.49902s12.833 -4.16602 19.5 -5.49902l16 -5c2.66699 26 4.66699 51.833 6 77.5s2 51.167 2 76.5zM446.001 910.996
c0 -4 -2.49902 -9.49219 -7.49902 -16.4922s-11.5 -15 -19.5 -24s-17.167 -18.5 -27.5 -28.5s-20.833 -19.667 -31.5 -29c24.667 -2 43.667 -10.667 57 -26s23.166 -33.5 29.499 -54.5s10 -42.667 11 -65s1.5 -41.5 1.5 -57.5c0 -27.333 -1 -54.333 -3 -81l-6 -80v-1h1
c6 0 11.5 2 16.5 6s9.83301 7.66699 14.5 11h-1c6 5.33301 12 10 18 14s13.667 6 23 6c12.667 0 23.334 -4.66699 32.001 -14s13 -20 13 -32c0 -12.667 -4.33301 -23.334 -13 -32.001c-13.333 -13.333 -28.666 -24.833 -45.999 -34.5s-36.333 -14.5 -57 -14.5h-4v0
c0.666992 0 0.666992 0 0 0h-5c-1.33301 -15.333 -2 -30.333 -2 -45v-45c0 -18 0.5 -39.333 1.5 -64s4.33301 -48.334 10 -71.001s14.667 -41.834 27 -57.501s29.833 -23.5 52.5 -23.5c14.667 0 28.5 3.16699 41.5 9.5s24 14.666 33 24.999s16.167 22.333 21.5 36
s8 27.834 8 42.501c0 6.66699 -1.83301 12.667 -5.5 18s-8.5 8 -14.5 8c-1.33301 0 -2 -1.66699 -2 -5c-3.33301 -10 -7.33301 -19 -12 -27s-15.667 -12 -33 -12c-12 0 -22.667 4.16699 -32 12.5s-14 19.166 -14 32.499c0 12.667 2.5 24.5 7.5 35.5s11.833 20.5 20.5 28.5
s18.667 14.333 30 19s23 7 35 7c16 0 30.833 -3.16699 44.5 -9.5s25.5 -15 35.5 -26s17.667 -23.5 23 -37.5s8 -28.667 8 -44c0 -27.333 -5 -53.166 -15 -77.499s-23.667 -45.833 -41 -64.5s-37.833 -33.5 -61.5 -44.5s-49.5 -16.5 -77.5 -16.5c-28.667 0 -53 5 -73 15
s-36.833 23.333 -50.5 40s-24.334 35.834 -32.001 57.501s-13.5 44 -17.5 67s-6.5 46.167 -7.5 69.5s-1.5 44.666 -1.5 63.999c0 17.333 0.333008 33.666 1 48.999s1.66699 31.666 3 48.999c-3.33301 1.33301 -7 2.5 -11 3.5s-7.66699 2.16699 -11 3.5h-1
c-4.66699 1.33301 -7.66699 2.33301 -9 3l-3 1.5c-0.666992 0.333008 -2 0.5 -4 0.5c-1.33301 0 -4.33301 0.666992 -9 2v-60c0 -41.333 -2 -83.5 -6 -126.5s-13.667 -82.167 -29 -117.5s-38.166 -64.333 -68.499 -87s-71.833 -34 -124.5 -34
c-12.667 0 -26.167 1.66699 -40.5 5s-27.5 8.83301 -39.5 16.5s-22 17.334 -30 29.001s-12 25.5 -12 41.5c0 12 2.33301 23 7 33s11 18.667 19 26s17.167 13.166 27.5 17.499s21.166 6.5 32.499 6.5c30 0 45 -15 45 -45c0 -11.333 -2.16699 -20 -6.5 -26
s-9.5 -10.667 -15.5 -14h13c32.667 0 58.167 8.83301 76.5 26.5s32 39.667 41 66s14.5 55 16.5 86s3 59.5 3 85.5v80c-8.66699 -2.66699 -16.334 -6.33398 -23.001 -11.001c-5.33301 -3.33301 -9.83301 -6 -13.5 -8s-9.16699 -3 -16.5 -3c-12 0 -22.667 4.66699 -32 14
s-14 20 -14 32c0 9.33301 1.5 16.166 4.5 20.499s6.5 8.5 10.5 12.5c24.667 22.667 52.667 35 84 37c0 8.66699 0.166992 17 0.5 25s0.833008 16.333 1.5 25c0.666992 12.667 1.16699 24.834 1.5 36.501s0.5 24.167 0.5 37.5c0 11.333 0.833008 23.666 2.5 36.999
s4.16699 27 7.5 41s8 27.667 14 41s13 25.333 21 36c-15.333 10 -23 23.333 -23 40c0 13.333 6 25 18 35l9.5 7.5l9.5 7.5l33 25c10 7.33301 20.333 16.666 31 27.999c1.33301 2.66699 3.33301 5.33398 6 8.00098c6 8 13.333 16 22 24s19 12 31 12s22.667 -4.33301 32 -13
s14 -19.334 14 -32.001z" />
    <glyph glyph-name="Acircumflex" unicode="&#xc2;" horiz-adv-x="780" 
d="M401 619c0 6 -0.165039 14.832 -0.498047 26.499s-1 23.334 -2 35.001s-2.83301 21.667 -5.5 30s-6.33398 12.5 -11.001 12.5c-8 0 -14.667 -4.16699 -20 -12.5s-9.5 -18.333 -12.5 -30s-5 -23.667 -6 -36s-1.5 -22.5 -1.5 -30.5v-92c0 -15.333 0.166992 -27.5 0.5 -36.5
s0.5 -20.833 0.5 -35.5c6 -1.33301 12.333 -3 19 -5s12.667 -3.66699 18 -5l5 -2h1l0.5 -0.5c0.333008 -0.333008 2.16602 -0.833008 5.49902 -1.5c6 62 9 123 9 183zM508.002 814.999c0 -12.667 -4.33301 -23.3174 -13 -31.9844s-19.334 -13 -32.001 -13
c7.33301 -11.333 13 -24 17 -38s6.83301 -28.333 8.5 -43s2.66699 -28.834 3 -42.501s0.5 -25.834 0.5 -36.501c0 -28 -0.833008 -55.667 -2.5 -83s-3.5 -54.666 -5.5 -81.999c-0.666992 -4 -1.16699 -8 -1.5 -12s-0.5 -8 -0.5 -12h2c5.33301 0 11 2.16699 17 6.5l16 11.5
c6 5.33301 11.5 9.66602 16.5 12.999s12.167 5 21.5 5c12.667 0 23.334 -4.33301 32.001 -13s13 -19.334 13 -32.001c0 -10.667 -4 -21 -12 -31c-12.667 -13.333 -28 -25.333 -46 -36s-37.333 -16 -58 -16c-2.66699 0 -4.16699 -0.166992 -4.5 -0.5l-0.5 -0.5h-1l-4 1
c-0.666992 -10 -1 -20.333 -1 -31v-30c0 -18 0.5 -39.333 1.5 -64s4.33301 -48.334 10 -71.001s14.667 -41.834 27 -57.501s29.833 -23.5 52.5 -23.5c14 0 26.333 3 37 9s20.167 13.833 28.5 23.5s15.666 20 21.999 31l17.5 31.5c8.66699 16 17.334 29.667 26.001 41
s19.667 17 33 17c12.667 0 23.334 -4.33301 32.001 -13s13 -19.334 13 -32.001c0 -7.33301 -1.66699 -14.333 -5 -21c-10 -21.333 -21 -42.5 -33 -63.5s-26 -39.833 -42 -56.5s-34.5 -30.334 -55.5 -41.001s-45.5 -16 -73.5 -16c-28.667 0 -53 5 -73 15
s-36.667 23.333 -50 40s-24 35.834 -32 57.501s-14 44.167 -18 67.5s-6.5 46.5 -7.5 69.5s-1.5 44.167 -1.5 63.5v36c0 12 0.666992 24 2 36c-1.33301 0.666992 -3.16602 1.16699 -5.49902 1.5s-4.16602 0.833008 -5.49902 1.5c-5.33301 1.33301 -8.83301 2.33301 -10.5 3
s-3.16699 1.16699 -4.5 1.5s-2.83301 0.666016 -4.5 0.999023s-5.16699 1.16602 -10.5 2.49902v-85c0 -24.667 -0.666992 -49.5 -2 -74.5s-4.33301 -49 -9 -72s-11.5 -44.5 -20.5 -64.5s-21.333 -37.333 -37 -52s-35 -26.334 -58 -35.001s-50.833 -13 -83.5 -13
c-24.667 0 -47.834 4.66699 -69.501 14s-40.5 22 -56.5 38s-28.667 34.833 -38 56.5s-14 44.834 -14 69.501c0 19.333 3.66699 37.666 11 54.999s17.5 32.5 30.5 45.5s28.167 23.333 45.5 31s35.666 11.5 54.999 11.5c14 0 27.5 -2.5 40.5 -7.5s24.667 -12 35 -21
s18.5 -19.833 24.5 -32.5s9 -26.334 9 -41.001c0 -12.667 -4.33301 -23.334 -13 -32.001s-19.334 -13 -32.001 -13c-10 0 -17.833 1.16699 -23.5 3.5s-9.83398 5.33301 -12.501 9s-4.66699 8 -6 13s-2.33301 10.167 -3 15.5l1 -2c-1.33301 2.66699 -2 4.66699 -2 6
c-3.33301 7.33301 -9.33301 11 -18 11c-14.667 0 -26.834 -5.16699 -36.501 -15.5s-14.5 -22.5 -14.5 -36.5c0 -24.667 8.16699 -45.5 24.5 -62.5s37.166 -25.5 62.499 -25.5c35.333 0 60.833 8.66699 76.5 26s26.834 43.666 33.501 78.999c4 20 6.5 39.667 7.5 59
s1.5 38.333 1.5 57v96c-5.33301 -1.33301 -10.666 -3.33301 -15.999 -6l-14 -7c-12 -6.66699 -21.333 -10 -28 -10c-12 0 -22.667 4.66699 -32 14s-14 20 -14 32c0 12.667 4.66699 23.667 14 33c12 11.333 26 19.666 42 24.999s32 8.66602 48 9.99902
c0 11.333 -0.166992 22.166 -0.5 32.499s-0.5 21.166 -0.5 32.499v89c0 18 2 38.667 6 62s11 45.166 21 65.499s23.333 37.5 40 51.5s38 21 64 21c8 0 16 -1 24 -3c-5.33301 6 -10.333 12.167 -15 18.5l-13 17.5v-1l-4 4l-25 -26l-27 -26
c-8.66699 -8 -16.667 -14.667 -24 -20s-12.333 -8 -15 -8c-12 0 -22.667 4.33301 -32 13s-14 19.334 -14 32.001c0 6.66699 1.5 12.834 4.5 18.501s6.5 11 10.5 16s8.16699 9.5 12.5 13.5l10.5 10v-1c7.33301 6.66699 14 13.667 20 21s12.333 15.666 19 24.999
c2.66699 4 6 8.5 10 13.5s8.5 9.83301 13.5 14.5s10.5 8.66699 16.5 12s12.667 5 20 5c9.33301 0 19 -4 29 -12c6.66699 -5.33301 12.167 -10.833 16.5 -16.5s8.5 -11.834 12.5 -18.501c2.66699 -3.33301 4.83398 -6.5 6.50098 -9.5s4.16699 -6.16699 7.5 -9.5
c4 -6 8 -11.167 12 -15.5s8 -8.16602 12 -11.499c4 -4 8.5 -8.16699 13.5 -12.5s9.5 -8.83301 13.5 -13.5c3.33301 -3.33301 6 -7.5 8 -12.5s3 -10.5 3 -16.5z" />
    <glyph glyph-name="Atilde" unicode="&#xc3;" horiz-adv-x="733" 
d="M368 618c0 6 -0.166016 14.8291 -0.499023 26.4961s-1 23.334 -2 35.001s-2.83301 21.834 -5.5 30.501s-6.33398 13 -11.001 13c-8 0 -14.667 -4.16699 -20 -12.5s-9.5 -18.333 -12.5 -30s-5 -23.667 -6 -36s-1.5 -22.5 -1.5 -30.5c0 -12.667 -0.166992 -25.5 -0.5 -38.5
s-0.833008 -26.167 -1.5 -39.5c0 -6.66699 -0.166992 -12 -0.5 -16l-1 -12c-0.333008 -4 -0.5 -8 -0.5 -12v-16c6.66699 -1.33301 13.167 -3.16602 19.5 -5.49902s12.833 -4.16602 19.5 -5.49902l16 -5c2.66699 26 4.66699 51.833 6 77.5s2 51.167 2 76.5zM510.001 876.996
c0 -6 -3.5 -13.3223 -10.5 -21.9893s-15.333 -17.334 -25 -26.001s-20 -16.834 -31 -24.501s-20.5 -13.167 -28.5 -16.5c10.667 -10.667 19 -23.5 25 -38.5s10.333 -30.833 13 -47.5s4.33398 -33 5.00098 -49s1 -30.333 1 -43c0 -27.333 -1 -54.333 -3 -81l-6 -80v-1h1
c6 0 11.5 2 16.5 6s9.83301 7.66699 14.5 11h-1c6 5.33301 12 10 18 14s13.667 6 23 6c12.667 0 23.334 -4.66699 32.001 -14s13 -20 13 -32c0 -12.667 -4.33301 -23.334 -13 -32.001c-13.333 -13.333 -28.666 -24.833 -45.999 -34.5s-36.333 -14.5 -57 -14.5
c-2 0 -3.33301 -0.166992 -4 -0.5s-0.666992 -0.5 0 -0.5c-0.666992 0 -1.33398 0.166992 -2.00098 0.5s-1.66699 0.5 -3 0.5c-1.33301 -15.333 -2 -30.333 -2 -45v-45c0 -18 0.5 -39.333 1.5 -64s4.33301 -48.334 10 -71.001s14.667 -41.834 27 -57.501
s29.833 -23.5 52.5 -23.5c14.667 0 28.5 3.16699 41.5 9.5s24 14.666 33 24.999s16.167 22.333 21.5 36s8 27.834 8 42.501c0 6.66699 -1.83301 12.667 -5.5 18s-8.5 8 -14.5 8c-1.33301 0 -2 -1.66699 -2 -5c-3.33301 -10 -7.33301 -19 -12 -27s-15.667 -12 -33 -12
c-12 0 -22.667 4.16699 -32 12.5s-14 19.166 -14 32.499c0 12.667 2.5 24.5 7.5 35.5s11.833 20.5 20.5 28.5s18.667 14.333 30 19s23 7 35 7c16 0 30.833 -3.16699 44.5 -9.5s25.5 -15 35.5 -26s17.667 -23.5 23 -37.5s8 -28.667 8 -44c0 -27.333 -5 -53.166 -15 -77.499
s-23.667 -45.833 -41 -64.5s-37.833 -33.5 -61.5 -44.5s-49.5 -16.5 -77.5 -16.5c-28.667 0 -53 5 -73 15s-36.833 23.333 -50.5 40s-24.334 35.834 -32.001 57.501s-13.5 44 -17.5 67s-6.5 46.167 -7.5 69.5s-1.5 44.666 -1.5 63.999c0 17.333 0.333008 33.666 1 48.999
s1.66699 31.666 3 48.999c-3.33301 1.33301 -7 2.5 -11 3.5s-7.66699 2.16699 -11 3.5h-1c-4.66699 1.33301 -7.66699 2.33301 -9 3l-3 1.5c-0.666992 0.333008 -2 0.5 -4 0.5c-1.33301 0 -4.33301 0.666992 -9 2v-60c0 -41.333 -2 -83.5 -6 -126.5
s-13.667 -82.167 -29 -117.5s-38.166 -64.333 -68.499 -87s-71.833 -34 -124.5 -34c-12.667 0 -26.167 1.66699 -40.5 5s-27.5 8.83301 -39.5 16.5s-22 17.334 -30 29.001s-12 25.5 -12 41.5c0 12 2.33301 23 7 33s11 18.667 19 26s17.167 13.166 27.5 17.499
s21.166 6.5 32.499 6.5c30 0 45 -15 45 -45c0 -11.333 -2.16699 -20 -6.5 -26s-9.5 -10.667 -15.5 -14h13c32.667 0 58.167 8.83301 76.5 26.5s32 39.667 41 66s14.5 55 16.5 86s3 59.5 3 85.5v80c-8.66699 -2.66699 -16.334 -6.33398 -23.001 -11.001
c-5.33301 -3.33301 -9.83301 -6 -13.5 -8s-9.16699 -3 -16.5 -3c-12 0 -22.667 4.66699 -32 14s-14 20 -14 32c0 9.33301 1.5 16.166 4.5 20.499s6.5 8.5 10.5 12.5c24.667 22.667 52.667 35 84 37c0 8.66699 0.166992 17 0.5 25s0.833008 16.333 1.5 25
c0.666992 12.667 1.16699 24.834 1.5 36.501s0.5 24.167 0.5 37.5c0 17.333 1.83301 36.833 5.5 58.5s10 42.5 19 62.5s21 37.167 36 51.5s33.5 23.166 55.5 26.499c-5.33301 5.33301 -10.333 10.666 -15 15.999s-8.66699 10.666 -12 15.999l-5.5 7.5l-4.5 6.5
c-1.33301 -1.33301 -2.83301 -3.16602 -4.5 -5.49902l-5.5 -7.5c-8 -9.33301 -16.167 -18 -24.5 -26s-18.166 -12 -29.499 -12c-12 0 -22.833 4.66699 -32.5 14s-14.5 20 -14.5 32c0 6.66699 4.5 15.667 13.5 27s19.667 22.166 32 32.499s24.666 19.333 36.999 27
s21.833 11.5 28.5 11.5c21.333 0 38.333 -5.5 51 -16.5s23.667 -23.167 33 -36.5c6.66699 -10 12 -16.667 16 -20c2 1.33301 3.66699 2.83301 5 4.5s3.33301 3.5 6 5.5c10 7.33301 18.667 14.833 26 22.5s17.666 11.5 30.999 11.5c12.667 0 23.334 -4.66699 32.001 -14
s13 -20 13 -32z" />
    <glyph glyph-name="Adieresis" unicode="&#xc4;" horiz-adv-x="733" 
d="M368 618c0 6 -0.166016 14.665 -0.499023 25.998s-1 22.833 -2 34.5s-2.83301 21.834 -5.5 30.501s-6.33398 13 -11.001 13c-8 0 -14.667 -4.16699 -20 -12.5s-9.5 -18.333 -12.5 -30s-5 -23.667 -6 -36s-1.5 -22.5 -1.5 -30.5c0 -12.667 -0.166992 -25.5 -0.5 -38.5
s-0.833008 -25.833 -1.5 -38.5c0 -6.66699 -0.166992 -12.167 -0.5 -16.5l-1 -12.5c-0.333008 -4 -0.5 -8.33301 -0.5 -13v-16c6 -1.33301 12.333 -3 19 -5s13 -3.66699 19 -5c4 -1.33301 6.33301 -2 7 -2s1.16699 -0.166992 1.5 -0.5s1 -0.666016 2 -0.999023
s3.5 -0.833008 7.5 -1.5c2 26 3.66699 51.667 5 77s2 51.333 2 78zM475.001 844.998c0 -15.333 -4.83203 -29.3262 -14.499 -41.9932s-21.834 -21.334 -36.501 -26.001c8.66699 -11.333 15.334 -24.333 20.001 -39s8.16699 -29.667 10.5 -45s3.66602 -30.333 3.99902 -45
s0.5 -27.667 0.5 -39c0 -27.333 -1 -54.166 -3 -80.499l-6 -78.5v-1v-1h1c6 0 11.5 2 16.5 6s9.83301 7.66699 14.5 11h-1c6 5.33301 12 10 18 14s13.667 6 23 6c12.667 0 23.334 -4.66699 32.001 -14s13 -20 13 -32c0 -12.667 -4.33301 -23.334 -13 -32.001
c-13.333 -13.333 -28.5 -25 -45.5 -35s-36.167 -15 -57.5 -15c-2 0 -3.33301 -0.166992 -4 -0.5s-0.666992 -0.5 0 -0.5c-0.666992 0 -1.33398 0.166992 -2.00098 0.5s-1.66699 0.5 -3 0.5c-1.33301 -15.333 -2 -30.333 -2 -45v-44c0 -18 0.5 -39.333 1.5 -64
s4.33301 -48.334 10 -71.001s14.667 -41.834 27 -57.501s29.833 -23.5 52.5 -23.5c14.667 0 28.5 3.16699 41.5 9.5s24 14.666 33 24.999s16.167 22.333 21.5 36s8 27.834 8 42.501c0 6.66699 -1.83301 12.667 -5.5 18s-8.5 8 -14.5 8c-1.33301 0 -2 -1.66699 -2 -5
c-3.33301 -10 -7.33301 -19 -12 -27s-15.667 -12 -33 -12c-12 0 -22.667 4.16699 -32 12.5s-14 19.166 -14 32.499c0 12.667 2.5 24.5 7.5 35.5s11.833 20.5 20.5 28.5s18.667 14.333 30 19s23 7 35 7c16 0 30.833 -3.16699 44.5 -9.5s25.5 -15 35.5 -26
s17.667 -23.5 23 -37.5s8 -28.667 8 -44c0 -27.333 -5 -53.166 -15 -77.499s-23.667 -45.833 -41 -64.5s-37.833 -33.5 -61.5 -44.5s-49.5 -16.5 -77.5 -16.5c-42.667 0 -76.167 10.833 -100.5 32.5s-42.5 48.334 -54.5 80.001s-19.5 65.667 -22.5 102
s-4.5 69.166 -4.5 98.499c0 17.333 0.333008 33.666 1 48.999s1.66699 31.666 3 48.999c-3.33301 1.33301 -6.66602 2.33301 -9.99902 3s-6.66602 1.66699 -9.99902 3c-4 1.33301 -6.83301 2.33301 -8.5 3s-3.16699 1.16699 -4.5 1.5s-3 0.666016 -5 0.999023
s-5.33301 1.16602 -10 2.49902v-61c0 -27.333 -0.833008 -55.333 -2.5 -84s-5 -56.5 -10 -83.5s-12.5 -52.333 -22.5 -76s-23.5 -44.5 -40.5 -62.5s-38 -32.167 -63 -42.5s-54.833 -15.5 -89.5 -15.5c-12.667 0 -26.167 1.66699 -40.5 5s-27.5 8.83301 -39.5 16.5
s-22 17.334 -30 29.001s-12 25.5 -12 41.5c0 12 2.33301 23 7 33s11 18.667 19 26s17.167 13.166 27.5 17.499s21.166 6.5 32.499 6.5c30 0 45 -15 45 -45c0 -11.333 -2.16699 -20 -6.5 -26s-9.5 -10.667 -15.5 -14h13c32.667 0 58.167 8.83301 76.5 26.5s32 39.667 41 66
s14.5 55 16.5 86s3 59.5 3 85.5v80c-8.66699 -2.66699 -16.334 -6.33398 -23.001 -11.001c-5.33301 -3.33301 -9.83301 -6 -13.5 -8s-9.16699 -3 -16.5 -3c-12 0 -22.667 4.33301 -32 13s-14 19.334 -14 32.001c0 8.66699 1.5 15.5 4.5 20.5s6.5 9.5 10.5 13.5
c24.667 22.667 52.667 35 84 37c0 7.33301 0.166992 15.5 0.5 24.5s0.833008 17.167 1.5 24.5c0.666992 12 1.16699 24 1.5 36s0.5 24.667 0.5 38c0 12 1 25.5 3 40.5s5 30 9 45s9.33301 29.5 16 43.5s15 26.333 25 37c-13.333 5.33301 -24.666 14 -33.999 26
s-14 25.333 -14 40c0 19.333 7.16699 35.666 21.5 48.999s30.833 20 49.5 20c24 0 42.333 -9.66699 55 -29c14 19.333 33 29 57 29c19.333 0 35.666 -6.66699 48.999 -20s20 -29.666 20 -48.999z" />
    <glyph glyph-name="Aring" unicode="&#xc5;" horiz-adv-x="733" 
d="M356 865c0 2 -1 3.5 -3 4.5s-4 1.5 -6 1.5c-5.33301 0 -8 -2 -8 -6c0 -4.66699 2.66699 -7 8 -7c6 0 9 2.33301 9 7zM368 617c0 6 -0.166016 14.665 -0.499023 25.998s-1 22.833 -2 34.5s-2.83301 21.834 -5.5 30.501s-6.33398 13 -11.001 13
c-8 0 -14.667 -4.16699 -20 -12.5s-9.5 -18.333 -12.5 -30s-5 -23.667 -6 -36s-1.5 -22.5 -1.5 -30.5c0 -13.333 -0.166992 -26.333 -0.5 -39s-0.833008 -25.667 -1.5 -39c0 -6.66699 -0.166992 -12 -0.5 -16l-1 -11.5c-0.333008 -3.66699 -0.5 -7.83398 -0.5 -12.501v-15
c6.66699 -1.33301 13.167 -3.16602 19.5 -5.49902s12.833 -4.16602 19.5 -5.49902l16 -5c2.66699 26 4.66699 51.833 6 77.5s2 51.167 2 76.5zM439.001 864.998c0 -14.667 -3.33496 -27.8311 -10.002 -39.498s-15.334 -21.5 -26.001 -29.5
c14 -9.33301 24.667 -21.833 32 -37.5s12.833 -32.334 16.5 -50.001s5.83398 -35.5 6.50098 -53.5s1 -33.667 1 -47c0 -27.333 -1 -54.166 -3 -80.499l-6 -78.5v-1v-1h1c6 0 11.5 2 16.5 6s9.83301 7.66699 14.5 11h-1c6 5.33301 12 10 18 14s13.667 6 23 6
c12.667 0 23.334 -4.66699 32.001 -14s13 -20 13 -32c0 -12.667 -4.33301 -23.334 -13 -32.001c-13.333 -13.333 -28.666 -24.833 -45.999 -34.5s-36.333 -14.5 -57 -14.5c-2 0 -3.33301 -0.166992 -4 -0.5s-0.666992 -0.5 0 -0.5
c-0.666992 0 -1.33398 0.166992 -2.00098 0.5s-1.66699 0.5 -3 0.5c-1.33301 -15.333 -2 -30.333 -2 -45v-45c0 -18 0.5 -39.333 1.5 -64s4.33301 -48.167 10 -70.5s14.667 -41.333 27 -57s29.833 -23.5 52.5 -23.5c14.667 0 28.5 3 41.5 9s24 14.167 33 24.5
s16.167 22.333 21.5 36s8 27.834 8 42.501c0 6.66699 -1.83301 12.834 -5.5 18.501s-8.5 8.5 -14.5 8.5c-1.33301 0 -2 -1.66699 -2 -5c-3.33301 -10 -7.33301 -19 -12 -27s-15.667 -12 -33 -12c-12 0 -22.667 4.16699 -32 12.5s-14 19.166 -14 32.499
c0 12.667 2.5 24.5 7.5 35.5s11.833 20.5 20.5 28.5s18.667 14.167 30 18.5s23 6.5 35 6.5c16 0 30.833 -3.16699 44.5 -9.5s25.5 -15 35.5 -26s17.667 -23.5 23 -37.5s8 -28.667 8 -44c0 -27.333 -5 -53.166 -15 -77.499s-23.667 -45.666 -41 -63.999
s-37.833 -33 -61.5 -44s-49.5 -16.5 -77.5 -16.5c-28.667 0 -53 5 -73 15s-36.667 23.167 -50 39.5s-24 35.333 -32 57s-14 44 -18 67s-6.5 46.167 -7.5 69.5s-1.5 44.666 -1.5 63.999c0 17.333 0.333008 33.666 1 48.999s1.66699 31.666 3 48.999
c-3.33301 1.33301 -6.66602 2.33301 -9.99902 3s-6.66602 1.66699 -9.99902 3c-4 1.33301 -6.83301 2.33301 -8.5 3s-3.16699 1.16699 -4.5 1.5s-3 0.666016 -5 0.999023s-5.33301 1.16602 -10 2.49902v-61c0 -41.333 -2 -83.333 -6 -126s-13.667 -81.667 -29 -117
s-38.166 -64.166 -68.499 -86.499s-71.833 -33.5 -124.5 -33.5c-12.667 0 -26.167 1.66699 -40.5 5s-27.5 8.83301 -39.5 16.5s-22 17.334 -30 29.001s-12 25.5 -12 41.5c0 12 2.33301 23 7 33s11 18.667 19 26s17.167 13.166 27.5 17.499s21.166 6.5 32.499 6.5
c30 0 45 -15 45 -45c0 -11.333 -2.16699 -20 -6.5 -26s-9.5 -10.667 -15.5 -14h13c32.667 0 58.167 8.83301 76.5 26.5s32 39.667 41 66s14.5 54.833 16.5 85.5s3 59 3 85v80c-8.66699 -2.66699 -16.334 -6.33398 -23.001 -11.001c-5.33301 -3.33301 -9.83301 -6 -13.5 -8
s-9.16699 -3 -16.5 -3c-12 0 -22.667 4.33301 -32 13s-14 19.334 -14 32.001c0 8.66699 1.5 15.5 4.5 20.5s6.5 9.5 10.5 13.5c24.667 22.667 52.667 35 84 37c0 7.33301 0.166992 15.5 0.5 24.5s0.833008 17.167 1.5 24.5c0.666992 12 1.16699 24 1.5 36s0.5 24.667 0.5 38
c0 14 1.16699 29.667 3.5 47s6.5 34.5 12.5 51.5s13.667 33 23 48s21 27.167 35 36.5c-11.333 8 -20.333 17.833 -27 29.5s-10 25.167 -10 40.5c0 12.667 2.5 24.334 7.5 35.001s11.833 19.667 20.5 27s18.5 13.166 29.5 17.499s22.5 6.5 34.5 6.5s23.5 -2.16699 34.5 -6.5
s20.833 -10.166 29.5 -17.499s15.5 -16.333 20.5 -27s7.5 -22.334 7.5 -35.001z" />
    <glyph glyph-name="AE" unicode="&#xc6;" horiz-adv-x="848" 
d="M475 533c-0.666992 -3.33301 -1.66699 -7.66602 -3 -12.999c2.66699 1.33301 4.66699 2.66602 6 3.99902zM689 479c0 0.666992 -1.5 1.16797 -4.5 1.50098s-6.5 0.666016 -10.5 0.999023s-8 0.5 -12 0.5h-10h-12c-4 0 -8 -0.333008 -12 -1c6.66699 -2 13.667 -3 21 -3h10
h13c4.66699 0 8.66699 0.166992 12 0.5zM402 676.001c0 4 -0.332031 8.5 -0.999023 13.5s-1.83398 9.83301 -3.50098 14.5s-3.83398 8.66699 -6.50098 12s-5.66699 5 -9 5c-10 0 -17.5 -5.16699 -22.5 -15.5s-8.83301 -22.666 -11.5 -36.999s-4.16699 -29 -4.5 -44
s-0.5 -27.167 -0.5 -36.5v-80v-30c0 -9.33301 0.333008 -19 1 -29c3.33301 -1.33301 6.33301 -2 9 -2s6.66699 -0.333008 12 -1c1.33301 8 3 16.333 5 25s3.66699 17 5 25c6.66699 30 12.834 59.667 18.501 89s8.5 59.666 8.5 90.999zM562.001 562.001
c9.33301 2.66699 18.332 4.50098 26.999 5.50098s17.667 2.16699 27 3.5c-2.66699 5.33301 -4 12.333 -4 21c0 13.333 4.33301 24.166 13 32.499s19.334 12.5 32.001 12.5c8 0 16.833 1.5 26.5 4.5s18.667 7.33301 27 13s15.333 12.167 21 19.5s8.5 15.333 8.5 24
s-3.5 15 -10.5 19s-14.5 6 -22.5 6c-15.333 0 -31.833 -3.33301 -49.5 -10s-34 -15.5 -49 -26.5s-27.5 -23.5 -37.5 -37.5s-15 -28.333 -15 -43c0 -15.333 2 -30 6 -44zM869 164.002c0 -28 -6.49414 -54.3359 -19.4941 -79.0029s-30 -46.167 -51 -64.5
s-44.667 -32.833 -71 -43.5s-52.833 -16 -79.5 -16c-42.667 0 -81.5 8.16699 -116.5 24.5s-65.5 38.333 -91.5 66s-46.833 59.834 -62.5 96.501s-24.834 75.334 -27.501 116.001v-1c-0.666992 4 -1 8 -1 12v15v25v20c0 8.66699 0.333008 15.667 1 21
c-2 0 -4.33301 0.666992 -7 2v-86c0 -36.667 -1.83301 -73.334 -5.5 -110.001s-12.667 -69.834 -27 -99.501s-35.5 -53.834 -63.5 -72.501s-66.333 -28 -115 -28c-25.333 0 -48.666 4.66699 -69.999 14s-40 22 -56 38s-28.5 34.833 -37.5 56.5s-13.5 44.834 -13.5 69.501
c0 19.333 3.66699 37.666 11 54.999s17.333 32.5 30 45.5s27.667 23.167 45 30.5s35.666 11 54.999 11c14 0 27.667 -2.5 41 -7.5s25.166 -11.833 35.499 -20.5s18.5 -19.334 24.5 -32.001s9 -26.334 9 -41.001c0 -13.333 -4.66699 -24.166 -14 -32.499s-20 -12.5 -32 -12.5
c-12.667 0 -23.334 4.16699 -32.001 12.5s-13 19.166 -13 32.499c0 3.33301 -2 6 -6 8s-8.33301 3 -13 3c-14.667 0 -26.667 -5 -36 -15s-14 -22.333 -14 -37c0 -24.667 8 -45.5 24 -62.5s36.667 -25.5 62 -25.5c35.333 0 60.833 7.83301 76.5 23.5s26.834 40.5 33.501 74.5
c5.33301 26 8.66602 52 9.99902 78s2 51.667 2 77c0 7.33301 -0.166992 14.5 -0.5 21.5s-0.5 14.167 -0.5 21.5c-0.666992 3.33301 -1 6.66602 -1 9.99902v10c-5.33301 -1.33301 -10.166 -3 -14.499 -5s-8.16602 -4 -11.499 -6c-5.33301 -3.33301 -10.333 -6 -15 -8
s-9.66699 -3 -15 -3c-12 0 -22.667 4.33301 -32 13s-14 19.334 -14 32.001s4.66699 23.667 14 33c11.333 10.667 25.166 19.334 41.499 26.001s32.166 10.667 47.499 12v53c0 6 -0.166992 11.667 -0.5 17s-0.5 11 -0.5 17c-0.666992 5.33301 -1 11.666 -1 18.999v20
c0 20 1.16699 43 3.5 69s8 50.333 17 73s22.167 41.834 39.5 57.501s41 23.5 71 23.5c16 0 30.5 -3.5 43.5 -10.5s24.167 -16.167 33.5 -27.5s16.666 -23.833 21.999 -37.5s9 -27.5 11 -41.5c12 18 26.667 34.5 44 49.5s35.666 27.667 54.999 38s39.166 18.333 59.499 24
s39.166 8.5 56.499 8.5c16 0 31.5 -2.5 46.5 -7.5s28.333 -12.333 40 -22s20.834 -21.834 27.501 -36.501s10 -31.334 10 -50.001c0 -16.667 -3 -32.167 -9 -46.5s-14.167 -27.5 -24.5 -39.5s-22.333 -22.5 -36 -31.5s-27.834 -16.167 -42.501 -21.5
c16.667 -7.33301 31 -17.333 43 -30s18 -29.334 18 -50.001c0 -17.333 -4.5 -31.666 -13.5 -42.999s-20.333 -20.666 -34 -27.999s-28 -12.5 -43 -15.5s-28.5 -4.5 -40.5 -4.5c-25.333 0 -48.666 5 -69.999 15s-39.666 23.667 -54.999 41
c-28 -19.333 -48.833 -44.166 -62.5 -74.499s-20.5 -63.166 -20.5 -98.499c0 -28.667 5.5 -56.167 16.5 -82.5s26 -49.666 45 -69.999s41 -36.5 66 -48.5s51.833 -18 80.5 -18c14.667 0 29.667 3 45 9s29.333 14 42 24s22.834 21.833 30.501 35.5s11.5 28.167 11.5 43.5
c0 6.66699 -1.83301 12.834 -5.5 18.501s-8.16699 8.5 -13.5 8.5c-11.333 0 -17.833 -1 -19.5 -3s-2.83398 -3.66699 -3.50098 -5c-2.66699 -9.33301 -6 -16.666 -10 -21.999s-13 -8 -27 -8c-15.333 0 -27.5 5.66699 -36.5 17s-13.5 23.333 -13.5 36
c0 15.333 4.16699 27.833 12.5 37.5s18.166 17.334 29.499 23.001s23.333 9.5 36 11.5s23.334 3 32.001 3c15.333 0 29.666 -3.16699 42.999 -9.5s25 -15 35 -26s17.833 -23.5 23.5 -37.5s8.5 -28.667 8.5 -44z" />
    <glyph glyph-name="Ccedilla" unicode="&#xc7;" horiz-adv-x="576" 
d="M323 -129c-3.33301 -1.33301 -6.50098 -2.66602 -9.50098 -3.99902s-6.16699 -2.33301 -9.5 -3c4.66699 -2 12.667 -3 24 -3h12c5.33301 0 8 -0.333008 8 -1c0 3.33301 -3 6.16602 -9 8.49902s-11 3.5 -15 3.5c0.666992 0 0.833984 -0.166992 0.500977 -0.5
s-0.833008 -0.5 -1.5 -0.5zM66.999 527c11.333 35.333 26.666 69.9971 45.999 103.997s42.333 65 69 93c-17.333 -1.33301 -34 -4.83301 -50 -10.5s-30.5 -13.667 -43.5 -24s-23.333 -22.666 -31 -36.999s-11.5 -30.5 -11.5 -48.5c0 -13.333 1.83301 -26.666 5.5 -39.999
s8.83398 -25.666 15.501 -36.999zM408.999 681.997c0 9.33301 -2.49609 18.834 -7.49609 28.501s-12.167 14.5 -21.5 14.5c-30.667 0 -58.334 -7.5 -83.001 -22.5s-46.834 -34.5 -66.501 -58.5s-36.334 -50.5 -50.001 -79.5s-24.834 -57.5 -33.501 -85.5h10
c29.333 0 59 4.66699 89 14s57 22.666 81 39.999s43.667 38.5 59 63.5s23 53.5 23 85.5zM533.003 154.998c0 -26 -4.83301 -50 -14.5 -72s-22.667 -41.333 -39 -58s-35.333 -30.167 -57 -40.5s-44.5 -17.5 -68.5 -21.5c0 -1.33301 -0.166992 -2.16602 -0.5 -2.49902
s-0.5 -1.16602 -0.5 -2.49902c10.667 -3.33301 21.167 -8.16602 31.5 -14.499s19.5 -13.666 27.5 -21.999s14.5 -17.666 19.5 -27.999s7.5 -21.5 7.5 -33.5c0 -15.333 -3.66699 -28.5 -11 -39.5s-16.5 -20.167 -27.5 -27.5s-23 -12.833 -36 -16.5s-25.167 -5.5 -36.5 -5.5
c-21.333 0 -42.833 4 -64.5 12s-38.167 23 -49.5 45c-2.66699 3.33301 -4 6.66602 -4 9.99902v12c0 12.667 4.33301 23.167 13 31.5s19.334 12.5 32.001 12.5h1c-0.666992 2.66699 -1.16699 5 -1.5 7s-0.5 4.33301 -0.5 7v10c0 2.66699 1.33301 5.66699 4 9
c1.33301 5.33301 2.16602 11.166 2.49902 17.499s0.833008 12.833 1.5 19.5c-37.333 7.33301 -70.333 21.666 -99 42.999s-52.834 46.833 -72.501 76.5s-34.667 62.167 -45 97.5s-15.5 70.666 -15.5 105.999c0 22.667 0.666992 45.5 2 68.5s4.33301 46.167 9 69.5
c-29.333 20.667 -51 46.667 -65 78s-21 65 -21 101c0 32 6.83301 61 20.5 87s31.834 48.167 54.501 66.5s48 32.5 76 42.5s56.667 15 86 15c12.667 0 23.334 -4 32.001 -12s13.334 -18.667 14.001 -32c20.667 13.333 42.667 24 66 32s48.666 12 75.999 12
c18.667 0 35.5 -3.83301 50.5 -11.5s27.667 -17.834 38 -30.501s18.166 -27 23.499 -43s8 -32 8 -48c0 -45.333 -10.167 -86 -30.5 -122s-46.833 -66.667 -79.5 -92s-69.5 -44.833 -110.5 -58.5s-81.833 -20.5 -122.5 -20.5h-15c-6 0 -11 0.333008 -15 1
c-2.66699 -17.333 -4.33398 -34.5 -5.00098 -51.5s-1 -34.167 -1 -51.5c0 -28.667 4.33301 -57.167 13 -85.5s21.167 -53.666 37.5 -75.999s36.5 -40.5 60.5 -54.5s51.333 -21 82 -21c15.333 0 30.666 2.5 45.999 7.5s29 12 41 21s21.833 20 29.5 33s11.5 27.5 11.5 43.5
c0 8.66699 -2.5 16.5 -7.5 23.5s-11.5 10.5 -19.5 10.5c-5.33301 0 -8.66602 -0.833008 -9.99902 -2.5s-2.33301 -3.16699 -3 -4.5c-3.33301 -8 -7.33301 -15.333 -12 -22s-14.667 -10 -30 -10c-30 0 -45 15 -45 45c0 14 3.16699 26.333 9.5 37s14.333 19.5 24 26.5
s20.334 12.167 32.001 15.5s23.167 5 34.5 5c16.667 0 32.167 -3.33301 46.5 -10s26.833 -15.834 37.5 -27.501s19 -25 25 -40s9 -30.5 9 -46.5z" />
    <glyph glyph-name="Egrave" unicode="&#xc8;" horiz-adv-x="521" 
d="M116 610c1.33301 21.333 6.66797 41.502 16.001 60.502s21.666 36.833 36.999 53.5c-10 -0.666992 -22 -2.83398 -36 -6.50098s-27.5 -8.5 -40.5 -14.5s-24 -13 -33 -21s-13.5 -16.333 -13.5 -25c0 -6.66699 2.16699 -12.5 6.5 -17.5s9.83301 -9.33301 16.5 -13
s14.167 -6.83398 22.5 -9.50098s16.5 -5 24.5 -7zM388.002 698.002c0 17.333 -10.0039 26 -30.0039 26c-13.333 0 -26.833 -2.16699 -40.5 -6.5s-26.667 -10.333 -39 -18s-23.666 -16.667 -33.999 -27s-18.833 -21.5 -25.5 -33.5c-3.33301 -5.33301 -6 -10.833 -8 -16.5
s-3.33301 -11.167 -4 -16.5c16.667 2 35.334 5 56.001 9s40.334 9.66699 59.001 17s34.334 16.333 47.001 27s19 23.667 19 39zM439.998 809.002c0 -6.66699 -1.32812 -12.6611 -3.99512 -17.9941c13.333 -9.33301 23.833 -21.833 31.5 -37.5s11.5 -34.167 11.5 -55.5
c0 -19.333 -3.66699 -37 -11 -53s-17.166 -30.167 -29.499 -42.5s-26.5 -23.333 -42.5 -33s-33 -17.834 -51 -24.501c13.333 -5.33301 25.166 -13 35.499 -23s15.5 -22.667 15.5 -38c0 -13.333 -3.16699 -25.166 -9.5 -35.499s-14.5 -18.833 -24.5 -25.5
s-20.833 -11.667 -32.5 -15s-22.834 -5 -33.501 -5c-18 0 -35.167 3 -51.5 9s-31.833 14.333 -46.5 25c-30 -15.333 -52.833 -36.5 -68.5 -63.5s-23.5 -57.167 -23.5 -90.5c0 -28 4.5 -55.833 13.5 -83.5s22 -52.334 39 -74.001s37.5 -39.334 61.5 -53.001
s50.667 -20.5 80 -20.5c14.667 0 29.667 3 45 9s29.166 14 41.499 24s22.333 21.833 30 35.5s11.5 28.167 11.5 43.5c0 6.66699 -1.83301 12.834 -5.5 18.501s-8.5 8.5 -14.5 8.5c-9.33301 0 -14.833 -0.833008 -16.5 -2.5s-2.83398 -3.5 -3.50098 -5.5l1 2
c-2.66699 -8 -6.5 -15.333 -11.5 -22s-14.5 -10 -28.5 -10c-15.333 0 -27.5 5.66699 -36.5 17s-13.5 23.333 -13.5 36c0 12 4 22.667 12 32s17.833 17.166 29.5 23.499s23.667 11.166 36 14.499s22.833 5 31.5 5c16 0 30.667 -3.16699 44 -9.5s25 -15 35 -26
s17.833 -23.5 23.5 -37.5s8.5 -28.667 8.5 -44c0 -28.667 -6.33301 -55.334 -19 -80.001s-29.334 -46 -50.001 -64s-44.167 -32.167 -70.5 -42.5s-52.833 -15.5 -79.5 -15.5c-43.333 0 -82.5 9.33301 -117.5 28s-64.833 43 -89.5 73s-43.834 64.167 -57.501 102.5
s-20.5 77.5 -20.5 117.5c0 46 10.667 88.833 32 128.5s51.333 71.5 90 95.5c-1.33301 2 -2.16602 3.5 -2.49902 4.5s-1.16602 2.5 -2.49902 4.5c-18.667 2.66699 -38.334 7.16699 -59.001 13.5s-39.834 15.333 -57.501 27s-32.167 25.667 -43.5 42s-17 35.833 -17 58.5
c0 24 7.83301 45.667 23.5 65s35 35.833 58 49.5s47 24.167 72 31.5s47.167 11 66.5 11c12.667 0 23.334 -4.16699 32.001 -12.5s13 -19.166 13 -32.499v-2c16 11.333 33 20.666 51 27.999s35.667 12.666 53 15.999c-10.667 9.33301 -21.334 19.166 -32.001 29.499
s-20.334 20.166 -29.001 29.499s-15.667 17.666 -21 24.999s-8 12.666 -8 15.999c0 12.667 4.83301 23.334 14.5 32.001s20.5 13 32.5 13c14.667 0 26.334 -5.33301 35.001 -16h-1c2.66699 -3.33301 5.16699 -6.16602 7.5 -8.49902s4.83301 -5.16602 7.5 -8.49902l14 -15.5
c4.66699 -5 10 -10.167 16 -15.5c4 -3.33301 8.66699 -7 14 -11l16 -12l16.5 -12l16.5 -12c11.333 -9.33301 17 -21.333 17 -36z" />
    <glyph glyph-name="Eacute" unicode="&#xc9;" horiz-adv-x="521" 
d="M116 610c1.33301 21.333 6.66797 41.502 16.001 60.502s21.666 36.833 36.999 53.5c-10 -0.666992 -22 -2.83398 -36 -6.50098s-27.5 -8.5 -40.5 -14.5s-24 -13 -33 -21s-13.5 -16.333 -13.5 -25c0 -6.66699 2.16699 -12.5 6.5 -17.5s9.83301 -9.33301 16.5 -13
s14.167 -6.83398 22.5 -9.50098s16.5 -5 24.5 -7zM388.002 698.002c0 17.333 -10.0039 26 -30.0039 26c-13.333 0 -26.833 -2.16699 -40.5 -6.5s-26.667 -10.333 -39 -18s-23.666 -16.667 -33.999 -27s-18.833 -21.5 -25.5 -33.5c-3.33301 -5.33301 -6 -10.833 -8 -16.5
s-3.33301 -11.167 -4 -16.5c16.667 2 35.334 5 56.001 9s40.334 9.66699 59.001 17s34.334 16.333 47.001 27s19 23.667 19 39zM438.998 906.002c0 -3.33301 -2.3252 -8.32715 -6.99219 -14.9941s-10.667 -14.167 -18 -22.5s-15.833 -17.333 -25.5 -27
s-19.5 -18.834 -29.5 -27.501c36 -0.666992 65 -10.667 87 -30s33 -48 33 -86c0 -19.333 -3.66699 -37 -11 -53s-17.166 -30.167 -29.499 -42.5s-26.5 -23.333 -42.5 -33s-33 -17.834 -51 -24.501c13.333 -5.33301 25.166 -13 35.499 -23s15.5 -22.667 15.5 -38
c0 -13.333 -3.16699 -25.166 -9.5 -35.499s-14.5 -18.833 -24.5 -25.5s-20.833 -11.667 -32.5 -15s-22.834 -5 -33.501 -5c-18 0 -35.167 3 -51.5 9s-31.833 14.333 -46.5 25c-30 -15.333 -52.833 -36.5 -68.5 -63.5s-23.5 -57.167 -23.5 -90.5
c0 -28 4.5 -55.833 13.5 -83.5s22 -52.334 39 -74.001s37.5 -39.334 61.5 -53.001s50.667 -20.5 80 -20.5c14.667 0 29.667 3 45 9s29.166 14 41.499 24s22.333 21.833 30 35.5s11.5 28.167 11.5 43.5c0 6.66699 -1.83301 12.834 -5.5 18.501s-8.5 8.5 -14.5 8.5
c-9.33301 0 -14.833 -0.833008 -16.5 -2.5s-2.83398 -3.5 -3.50098 -5.5l1 2c-2.66699 -8 -6.5 -15.333 -11.5 -22s-14.5 -10 -28.5 -10c-15.333 0 -27.5 5.66699 -36.5 17s-13.5 23.333 -13.5 36c0 12 4 22.667 12 32s17.833 17.166 29.5 23.499s23.667 11.166 36 14.499
s22.833 5 31.5 5c16 0 30.667 -3.16699 44 -9.5s25 -15 35 -26s17.833 -23.5 23.5 -37.5s8.5 -28.667 8.5 -44c0 -28.667 -6.33301 -55.334 -19 -80.001s-29.334 -46 -50.001 -64s-44.167 -32.167 -70.5 -42.5s-52.833 -15.5 -79.5 -15.5c-43.333 0 -82.5 9.33301 -117.5 28
s-64.833 43 -89.5 73s-43.834 64.167 -57.501 102.5s-20.5 77.5 -20.5 117.5c0 46 10.667 88.833 32 128.5s51.333 71.5 90 95.5c-1.33301 2 -2.16602 3.5 -2.49902 4.5s-1.16602 2.5 -2.49902 4.5c-18.667 2.66699 -38.334 7.16699 -59.001 13.5s-39.834 15.333 -57.501 27
s-32.167 25.667 -43.5 42s-17 35.833 -17 58.5c0 24 7.83301 45.667 23.5 65s35 35.833 58 49.5s47 24.167 72 31.5s47.167 11 66.5 11c12.667 0 23.334 -4.16699 32.001 -12.5s13 -19.166 13 -32.499v-2c3.33301 2.66699 6.66602 5 9.99902 7l10 6
c-4.66699 6.66699 -7 14.667 -7 24c0 6.66699 1.66699 13 5 19s7.5 11.667 12.5 17s10.333 10.166 16 14.499l15.5 11.5c0.666992 0 1.66699 0.666992 3 2s3.16602 2.66602 5.49902 3.99902s4.16602 2.66602 5.49902 3.99902l-1 -1c7.33301 5.33301 14.5 11 21.5 17
s14.167 13 21.5 21c0.666992 0 1 0.333008 1 1s0.333008 1.33398 1 2.00098l2 2c5.33301 6.66699 12.166 14 20.499 22s18.5 12 30.5 12s22.667 -4.66699 32 -14s14 -20 14 -32z" />
    <glyph glyph-name="Ecircumflex" unicode="&#xca;" horiz-adv-x="521" 
d="M220 767c16.667 11.333 34 20.668 52 28.001s35.667 12.666 53 15.999c-5.33301 6 -10.333 12.167 -15 18.5l-13 17.5v-1l-4 4c-10.667 -12 -23.167 -25 -37.5 -39s-26.5 -24.667 -36.5 -32c0 -1.33301 0.166992 -3 0.5 -5s0.5 -3.66699 0.5 -5v-2zM116 610.002
c1.33301 21.333 6.66797 41.502 16.001 60.502s21.666 36.833 36.999 53.5c-10 -0.666992 -22 -2.83398 -36 -6.50098s-27.5 -8.5 -40.5 -14.5s-24 -13 -33 -21s-13.5 -16.333 -13.5 -25c0 -6.66699 2.16699 -12.5 6.5 -17.5s9.83301 -9.33301 16.5 -13
s14.167 -6.83398 22.5 -9.50098s16.5 -5 24.5 -7zM388.002 698.004c0 17.333 -10.0039 26 -30.0039 26c-13.333 0 -26.833 -2.16699 -40.5 -6.5s-26.667 -10.333 -39 -18s-23.666 -16.667 -33.999 -27s-18.833 -21.5 -25.5 -33.5c-3.33301 -5.33301 -6 -10.833 -8 -16.5
s-3.33301 -11.167 -4 -16.5c16.667 2 35.334 5 56.001 9s40.334 9.66699 59.001 17s34.334 16.333 47.001 27s19 23.667 19 39zM426.998 815.004c0 -3.33301 -0.328125 -6.16211 -0.995117 -8.49512s-1.33398 -4.83301 -2.00098 -7.5
c17.333 -9.33301 30.833 -22.333 40.5 -39s14.5 -37.334 14.5 -62.001c0 -19.333 -3.66699 -37 -11 -53s-17.166 -30.167 -29.499 -42.5s-26.5 -23.333 -42.5 -33s-33 -17.834 -51 -24.501c13.333 -5.33301 25.166 -13 35.499 -23s15.5 -22.667 15.5 -38
c0 -13.333 -3.16699 -25.166 -9.5 -35.499s-14.5 -18.833 -24.5 -25.5s-20.833 -11.667 -32.5 -15s-22.834 -5 -33.501 -5c-18 0 -35.167 3 -51.5 9s-31.833 14.333 -46.5 25c-30 -15.333 -52.833 -36.5 -68.5 -63.5s-23.5 -57.167 -23.5 -90.5
c0 -28 4.5 -55.833 13.5 -83.5s22 -52.334 39 -74.001s37.5 -39.334 61.5 -53.001s50.667 -20.5 80 -20.5c14.667 0 29.667 3 45 9s29.166 14 41.499 24s22.333 21.833 30 35.5s11.5 28.167 11.5 43.5c0 6.66699 -1.83301 12.834 -5.5 18.501s-8.5 8.5 -14.5 8.5
c-9.33301 0 -14.833 -0.833008 -16.5 -2.5s-2.83398 -3.5 -3.50098 -5.5l1 2c-2.66699 -8 -6.5 -15.333 -11.5 -22s-14.5 -10 -28.5 -10c-15.333 0 -27.5 5.66699 -36.5 17s-13.5 23.333 -13.5 36c0 12 4 22.667 12 32s17.833 17.166 29.5 23.499s23.667 11.166 36 14.499
s22.833 5 31.5 5c16 0 30.667 -3.16699 44 -9.5s25 -15 35 -26s17.833 -23.5 23.5 -37.5s8.5 -28.667 8.5 -44c0 -28.667 -6.33301 -55.334 -19 -80.001s-29.334 -46 -50.001 -64s-44.167 -32.167 -70.5 -42.5s-52.833 -15.5 -79.5 -15.5c-43.333 0 -82.5 9.33301 -117.5 28
s-64.833 43 -89.5 73s-43.834 64.167 -57.501 102.5s-20.5 77.5 -20.5 117.5c0 46 10.667 88.833 32 128.5s51.333 71.5 90 95.5c-1.33301 2 -2.16602 3.5 -2.49902 4.5s-1.16602 2.5 -2.49902 4.5c-18.667 2.66699 -38.334 7.16699 -59.001 13.5s-39.834 15.333 -57.501 27
s-32.167 25.667 -43.5 42s-17 35.833 -17 58.5c0 22 6.83301 42 20.5 60s30.5 33.667 50.5 47s41.667 24.333 65 33s45 14 65 16v2c0 6.66699 1.5 12.834 4.5 18.501s6.5 11 10.5 16s8.16699 9.5 12.5 13.5l10.5 10v-1c7.33301 6.66699 14 13.667 20 21
s12.333 15.666 19 24.999c2.66699 4 6 8.5 10 13.5s8.5 9.83301 13.5 14.5s10.5 8.66699 16.5 12s12.667 5 20 5c9.33301 0 19 -4 29 -12c6.66699 -5.33301 12.167 -10.833 16.5 -16.5s8.5 -11.834 12.5 -18.501c2.66699 -3.33301 4.83398 -6.5 6.50098 -9.5
s4.16699 -6.16699 7.5 -9.5c4 -6 8 -11.167 12 -15.5s8 -8.16602 12 -11.499c4 -4 8.5 -8.16699 13.5 -12.5s9.5 -8.83301 13.5 -13.5c3.33301 -3.33301 6 -7.5 8 -12.5s3 -10.5 3 -16.5z" />
    <glyph glyph-name="Edieresis" unicode="&#xcb;" horiz-adv-x="521" 
d="M220 767c3.33301 2 6.16797 4 8.50098 6s5.16602 3.66699 8.49902 5c-5.33301 -2 -11.333 -3 -18 -3c0 -1.33301 0.166992 -2.33301 0.5 -3s0.5 -1.66699 0.5 -3v-2zM255.002 788l11 4.5l11 4.5c-1.33301 2 -3.33301 4.33301 -6 7c-4 -6.66699 -9.33301 -12 -16 -16z
M116.002 610c1.33301 21.333 6.66797 41.502 16.001 60.502s21.666 36.833 36.999 53.5c-10 -0.666992 -22 -2.83398 -36 -6.50098s-27.5 -8.5 -40.5 -14.5s-24 -13 -33 -21s-13.5 -16.333 -13.5 -25c0 -6.66699 2.16699 -12.5 6.5 -17.5s9.83301 -9.33301 16.5 -13
s14.167 -6.83398 22.5 -9.50098s16.5 -5 24.5 -7zM388.004 698.002c0 17.333 -10.0039 26 -30.0039 26c-13.333 0 -26.833 -2.16699 -40.5 -6.5s-26.667 -10.333 -39 -18s-23.666 -16.667 -33.999 -27s-18.833 -21.5 -25.5 -33.5c-3.33301 -5.33301 -6 -10.833 -8 -16.5
s-3.33301 -11.167 -4 -16.5c16.667 2 35.334 5 56.001 9s40.334 9.66699 59.001 17s34.334 16.333 47.001 27s19 23.667 19 39zM397 845.002c0 -12.667 -2.99414 -23.9951 -8.99414 -33.9951c28 -5.33301 50.167 -17.333 66.5 -36s24.5 -44.334 24.5 -77.001
c0 -19.333 -3.66699 -37 -11 -53s-17.166 -30.167 -29.499 -42.5s-26.5 -23.333 -42.5 -33s-33 -17.834 -51 -24.501c13.333 -5.33301 25.166 -13 35.499 -23s15.5 -22.667 15.5 -38c0 -13.333 -3.16699 -25.166 -9.5 -35.499s-14.5 -18.833 -24.5 -25.5
s-20.833 -11.667 -32.5 -15s-22.834 -5 -33.501 -5c-18 0 -35.167 3 -51.5 9s-31.833 14.333 -46.5 25c-30 -15.333 -52.833 -36.5 -68.5 -63.5s-23.5 -57.167 -23.5 -90.5c0 -28 4.5 -55.833 13.5 -83.5s22 -52.334 39 -74.001s37.5 -39.334 61.5 -53.001
s50.667 -20.5 80 -20.5c14.667 0 29.667 3 45 9s29.166 14 41.499 24s22.333 21.833 30 35.5s11.5 28.167 11.5 43.5c0 6.66699 -1.83301 12.834 -5.5 18.501s-8.5 8.5 -14.5 8.5c-9.33301 0 -14.833 -0.833008 -16.5 -2.5s-2.83398 -3.5 -3.50098 -5.5l1 2
c-2.66699 -8 -6.5 -15.333 -11.5 -22s-14.5 -10 -28.5 -10c-15.333 0 -27.5 5.66699 -36.5 17s-13.5 23.333 -13.5 36c0 12 4 22.667 12 32s17.833 17.166 29.5 23.499s23.667 11.166 36 14.499s22.833 5 31.5 5c16 0 30.667 -3.16699 44 -9.5s25 -15 35 -26
s17.833 -23.5 23.5 -37.5s8.5 -28.667 8.5 -44c0 -28.667 -6.33301 -55.334 -19 -80.001s-29.334 -46 -50.001 -64s-44.167 -32.167 -70.5 -42.5s-52.833 -15.5 -79.5 -15.5c-43.333 0 -82.5 9.33301 -117.5 28s-64.833 43 -89.5 73s-43.834 64.167 -57.501 102.5
s-20.5 77.5 -20.5 117.5c0 46 10.667 88.833 32 128.5s51.333 71.5 90 95.5c-1.33301 2 -2.16602 3.5 -2.49902 4.5s-1.16602 2.5 -2.49902 4.5c-18.667 2.66699 -38.334 7.16699 -59.001 13.5s-39.834 15.333 -57.501 27s-32.167 25.667 -43.5 42s-17 35.833 -17 58.5
c0 21.333 6.66699 41 20 59s30 33.833 50 47.5s41.5 24.667 64.5 33s44.167 13.5 63.5 15.5c-5.33301 10.667 -8 21.667 -8 33c0 19.333 7.16699 35.666 21.5 48.999s30.833 20 49.5 20c24 0 42.333 -9.66699 55 -29c14 19.333 33 29 57 29
c19.333 0 35.666 -6.66699 48.999 -20s20 -29.666 20 -48.999z" />
    </font>
</defs>
</svg>
